<?xml version="1.0" standalone="no"?>
<!DOCTYPE svg PUBLIC "-//W3C//DTD SVG 1.1//EN" "http://www.w3.org/Graphics/SVG/1.1/DTD/svg11.dtd" >
<svg xmlns="http://www.w3.org/2000/svg" xmlns:xlink="http://www.w3.org/1999/xlink" version="1.1">
<metadata>
Created by FontForge 20170731 at Fri Jul 10 12:29:26 2020
 By Aleksey,,,
(c) 1988, 1990, 1993, 2002 Adobe Systems Incorporated. All rights reserved.
</metadata>
<defs>
<font id="HelveticaNeueLTStd-Md" horiz-adv-x="1138" >
  <font-face 
    font-family="HelveticaNeueLT Std Med"
    font-weight="500"
    font-stretch="normal"
    units-per-em="2048"
    panose-1="2 11 6 4 2 2 2 2 2 4"
    ascent="1462"
    descent="-586"
    x-height="1059"
    cap-height="1462"
    bbox="-338 -453 2183 1950"
    underline-thickness="102"
    underline-position="-307"
    unicode-range="U+0020-FB02"
  />
<missing-glyph horiz-adv-x="1024" 
d="M0 0v1434h1024v-1434h-1024zM512 809l348 522h-696zM573 717l349 -522v1044zM164 102h696l-348 523zM102 1239v-1044l349 522z" />
    <glyph glyph-name="f_i" unicode="fi" 
d="M774 0v1059h234v-1059h-234zM18 885v174h175v88q0 78 16.5 136t42 91.5t65.5 54t79 27t89 6.5q112 0 164 -14v-182q-46 12 -108 12q-115 0 -115 -111v-108h199v-174h-199v-885h-233v885h-175zM774 1241v221h234v-221h-234z" />
    <glyph glyph-name="f_l" unicode="fl" 
d="M18 885v174h175v88q0 78 16.5 136t42 91.5t65.5 54t79 27t89 6.5q112 0 164 -14v-182q-46 12 -108 12q-115 0 -115 -111v-108h199v-174h-199v-885h-233v885h-175zM774 0v1462h234v-1462h-234z" />
    <glyph glyph-name=".notdef" horiz-adv-x="1024" 
d="M0 0v1434h1024v-1434h-1024zM512 809l348 522h-696zM573 717l349 -522v1044zM164 102h696l-348 523zM102 1239v-1044l349 522z" />
    <glyph glyph-name=".null" horiz-adv-x="0" 
 />
    <glyph glyph-name="nonmarkingreturn" horiz-adv-x="682" 
 />
    <glyph glyph-name="space" unicode=" " horiz-adv-x="569" 
 />
    <glyph glyph-name="exclam" unicode="!" horiz-adv-x="569" 
d="M158 1040v422h256v-422l-68 -632h-121zM147 0v256h275v-256h-275z" />
    <glyph glyph-name="quotedbl" unicode="&#x22;" horiz-adv-x="909" 
d="M170 885v577h209v-577h-209zM530 885v577h209v-577h-209z" />
    <glyph glyph-name="numbersign" unicode="#" 
d="M1014 584v-154h-195l-61 -430h-164l59 430h-225l-61 -430h-164l59 430h-192v154h215l37 266h-193v154h213l59 430h166l-61 -430h227l60 430h165l-61 -430h176v-154h-196l-37 -266h174zM713 850h-228l-36 -266h227z" />
    <glyph glyph-name="dollar" unicode="$" 
d="M618 627v-477q117 8 184.5 67t67.5 176q0 45 -14.5 80.5t-36.5 59t-58 42.5t-67.5 30t-75.5 22zM35 444h233q-3 -285 262 -294v495q-65 18 -113 34.5t-105.5 42.5t-98 59.5t-76 77.5t-53.5 104.5t-18 132.5q0 125 66 218t169.5 138t228.5 45v160h88v-160q94 0 174.5 -25
t142 -73t97 -125.5t35.5 -175.5h-233q-9 215 -216 215v-432q60 -16 105.5 -30.5t98.5 -36.5t92 -46t76.5 -58.5t61 -75t38 -93.5t14.5 -115q0 -112 -37.5 -199.5t-104 -142.5t-153.5 -84.5t-191 -34.5v-160h-88v160q-227 5 -362.5 130t-132.5 349zM530 903v410
q-231 0 -231 -201q0 -48 19 -84t54.5 -60t71.5 -38.5t86 -26.5z" />
    <glyph glyph-name="percent" unicode="%" horiz-adv-x="2048" 
d="M1538 -29q-90 0 -157.5 32t-107 89t-58.5 128.5t-19 158.5q0 85 20 157t60.5 129t107.5 89t154 32t154 -32t107.5 -89t60.5 -129t20 -157q0 -87 -19 -158.5t-58.5 -128.5t-107 -89t-157.5 -32zM1380 379q0 -125 37.5 -200t118.5 -75q82 0 121 75.5t39 199.5
q0 55 -7.5 101t-24.5 86.5t-49.5 63.5t-78.5 23q-156 0 -156 -274zM510 647q-90 0 -157.5 32t-107 89t-58.5 128.5t-19 158.5q0 85 20 157t60.5 129t107.5 89t154 32t154 -32t107.5 -89t60.5 -129t20 -157q0 -87 -19 -158.5t-58.5 -128.5t-107 -89t-157.5 -32zM352 1055
q0 -125 37.5 -200t118.5 -75q82 0 121 75.5t39 199.5q0 55 -7.5 101t-24.5 86.5t-49.5 63.5t-78.5 23q-156 0 -156 -274zM532 -49l797 1532h156l-793 -1532h-160z" />
    <glyph glyph-name="ampersand" unicode="&#x26;" horiz-adv-x="1327" 
d="M618 1323q-66 0 -110.5 -45t-44.5 -117q0 -34 15 -70t30.5 -58.5t46 -60.5t41.5 -54q41 28 65.5 47t52.5 48.5t41 64.5t13 77q0 73 -41.5 120.5t-108.5 47.5zM811 319l-287 357q-12 -7 -45.5 -26t-52 -30.5t-46.5 -35t-43 -47t-26.5 -59t-11.5 -77.5q0 -115 66 -180
t170 -65q31 0 59.5 5.5t48.5 11t42.5 20t34 22t29.5 27.5t23 26t21.5 28t17.5 23zM1069 0l-133 164q-158 -193 -410 -193q-205 0 -332.5 116.5t-127.5 318.5q0 252 335 423q-72 91 -109.5 162.5t-37.5 157.5q0 155 103 251.5t255 96.5q72 0 136.5 -22.5t116 -64.5t82 -110.5
t30.5 -152.5q0 -120 -73.5 -214t-190.5 -157l227 -274q34 97 45 196h205q-24 -217 -115 -358l281 -340h-287z" />
    <glyph glyph-name="quotesingle" unicode="'" horiz-adv-x="569" 
d="M180 885v577h209v-577h-209z" />
    <glyph glyph-name="parenleft" unicode="(" horiz-adv-x="569" 
d="M586 -391h-191q-140 221 -217.5 447t-77.5 497q0 244 76.5 484.5t218.5 459.5h191q-252 -450 -252 -944q0 -518 252 -944z" />
    <glyph glyph-name="parenright" unicode=")" horiz-adv-x="569" 
d="M-16 1497h190q140 -223 217.5 -449t77.5 -497q0 -244 -76.5 -484.5t-218.5 -457.5h-190q252 447 252 942q0 517 -252 946z" />
    <glyph glyph-name="asterisk" unicode="*" horiz-adv-x="757" 
d="M266 1094l-227 77l45 134l225 -88v245h140v-245l223 88l49 -134l-234 -77l144 -193l-109 -80l-145 201l-139 -201l-115 80z" />
    <glyph glyph-name="plus" unicode="+" horiz-adv-x="1228" 
d="M510 623v413h209v-413h411v-209h-411v-414h-209v414h-412v209h412z" />
    <glyph glyph-name="comma" unicode="," horiz-adv-x="569" 
d="M141 0v276h285v-276q-1 -124 -77 -211.5t-199 -112.5v125q65 17 100 73t33 126h-142z" />
    <glyph glyph-name="hyphen" unicode="-" horiz-adv-x="796" 
d="M100 446v222h596v-222h-596z" />
    <glyph glyph-name="period" unicode="." horiz-adv-x="569" 
d="M141 0v276h285v-276h-285z" />
    <glyph glyph-name="slash" unicode="/" horiz-adv-x="720" 
d="M-45 -35l588 1532h223l-588 -1532h-223z" />
    <glyph glyph-name="zero" unicode="0" 
d="M569 166q262 0 262 551t-262 551t-262 -551t262 -551zM569 1462q86 0 157 -24.5t121.5 -66t89.5 -100.5t62.5 -123.5t39 -140.5t21 -145.5t5.5 -144.5q0 -88 -8.5 -169t-28 -168.5t-57 -158.5t-90.5 -128.5t-132.5 -89.5t-179.5 -32q-86 0 -157 24.5t-121.5 66t-89 101
t-62.5 124t-39 140.5t-20.5 145.5t-5.5 144.5t5.5 144.5t20.5 145.5t39 140.5t62.5 123.5t89 100.5t121.5 66t157 24.5z" />
    <glyph glyph-name="one" unicode="1" 
d="M109 1012v184q76 -1 143.5 12.5t125 41t96.5 75t52 109.5h191v-1434h-256v1012h-352z" />
    <glyph glyph-name="two" unicode="2" 
d="M1059 209v-209h-979q3 334 315 543q33 24 95 65.5t100 68t87.5 68.5t78 78.5t49.5 86.5t22 104q1 34 -4.5 66t-22 67t-42 61t-70 43t-102.5 17q-67 0 -115 -27t-75 -78t-40.5 -112.5t-15.5 -141.5h-234q0 160 56 284t169 196.5t269 72.5q101 0 182 -28.5t132 -73.5
t85 -104t48 -117t14 -117q0 -81 -25.5 -153t-74.5 -132t-99.5 -104.5t-120.5 -93.5q-34 -23 -97.5 -64.5t-99 -66.5t-78.5 -59.5t-68.5 -69t-37.5 -70.5h699z" />
    <glyph glyph-name="three" unicode="3" 
d="M467 666v174q62 -2 116 8.5t100.5 35.5t73.5 71.5t27 109.5q0 90 -63 146.5t-160 56.5q-115 0 -177.5 -87t-59.5 -206h-234q9 215 136 351t339 136q85 0 165 -24.5t145 -71t104 -121t39 -166.5q0 -110 -51.5 -190.5t-151.5 -116.5v-4q121 -25 190.5 -122t69.5 -236
q0 -131 -70 -232.5t-185 -154t-253 -52.5q-242 0 -370.5 134.5t-133.5 365.5h234q-5 -135 66 -220t204 -85q121 0 198 68t77 188q0 65 -22 112t-56.5 73t-85.5 40.5t-100.5 18t-110.5 0.5z" />
    <glyph glyph-name="four" unicode="4" 
d="M1069 524v-184h-184v-340h-221v340h-615v231l615 863h221v-910h184zM659 1155l-430 -631h435v631h-5z" />
    <glyph glyph-name="five" unicode="5" 
d="M98 649l154 785h741v-209h-567l-74 -365l4 -4q46 51 118.5 80t146.5 29q209 0 328.5 -134.5t119.5 -345.5q0 -71 -17.5 -141.5t-56.5 -138t-95 -119.5t-140.5 -83.5t-186.5 -31.5q-215 0 -354.5 114.5t-146.5 322.5h233q10 -115 80 -178.5t184 -63.5q140 0 203.5 86
t63.5 229q0 82 -28 148t-91.5 108.5t-153.5 42.5q-183 0 -231 -131h-234z" />
    <glyph glyph-name="six" unicode="6" 
d="M584 166q81 0 139.5 43.5t85.5 109.5t27 146q0 123 -66 208t-186 85q-122 0 -190 -84t-68 -209q0 -80 28.5 -146.5t88 -109.5t141.5 -43zM1042 1071h-233q-8 89 -63.5 143t-145.5 54q-53 0 -96 -18.5t-71.5 -45.5t-51.5 -71.5t-35.5 -83t-22 -94.5t-13 -91.5t-7.5 -87.5
l4 -4q46 83 128.5 126.5t180.5 43.5q209 0 331 -135t122 -346q0 -212 -132 -351t-345 -139q-103 0 -185 26t-138.5 76t-96 115.5t-61.5 153t-31.5 178.5t-9.5 201q0 108 16.5 209t57 199t100.5 171t154.5 117.5t211.5 44.5q174 0 298.5 -109.5t133.5 -281.5z" />
    <glyph glyph-name="seven" unicode="7" 
d="M72 1225v209h981v-195q-237 -268 -372.5 -567.5t-162.5 -671.5h-256q22 327 171.5 645.5t381.5 579.5h-743z" />
    <glyph glyph-name="eight" unicode="8" 
d="M569 156q120 0 196.5 71.5t76.5 194.5q0 116 -76.5 184t-196.5 68t-196 -68t-76 -184q0 -123 76 -194.5t196 -71.5zM569 -29q-223 0 -364.5 122t-141.5 329q0 134 71 226.5t192 123.5v4q-97 37 -150 114t-53 181q0 184 116.5 287.5t329.5 103.5t330 -103.5t117 -287.5
q0 -104 -53 -181t-150 -114v-4q121 -31 191.5 -123.5t70.5 -226.5q0 -207 -141.5 -329t-364.5 -122zM569 1278q-97 0 -161 -58.5t-64 -160.5q0 -99 63 -155t162 -56q100 0 163 56t63 155q0 102 -64 160.5t-162 58.5z" />
    <glyph glyph-name="nine" unicode="9" 
d="M553 1268q-121 0 -185.5 -84t-64.5 -209q0 -81 26 -147.5t84.5 -110t139.5 -43.5q124 0 192 87t68 214q0 123 -68 208t-192 85zM96 362h234q8 -89 63.5 -142.5t145.5 -53.5q53 0 96 18.5t71.5 45.5t51.5 71t35.5 82.5t22 94.5t13 91.5t7.5 87.5l-5 5
q-45 -82 -127.5 -127.5t-181.5 -45.5q-203 0 -327.5 132.5t-124.5 351.5q0 215 132 352t361 137q119 0 208.5 -38.5t145.5 -104t90.5 -163t48 -204t13.5 -239.5q0 -89 -12 -174t-37.5 -170t-69 -155.5t-101.5 -125.5t-140.5 -86t-180.5 -31q-174 0 -298.5 109.5
t-133.5 281.5z" />
    <glyph glyph-name="colon" unicode=":" horiz-adv-x="569" 
d="M141 760v276h285v-276h-285zM141 0v276h285v-276h-285z" />
    <glyph glyph-name="semicolon" unicode=";" horiz-adv-x="569" 
d="M141 0v276h285v-276q-1 -124 -77 -211.5t-199 -112.5v125q65 17 100 73t33 126h-142zM141 760v276h285v-276h-285z" />
    <glyph glyph-name="less" unicode="&#x3c;" horiz-adv-x="1228" 
d="M1135 193v-209l-1041 460v148l1041 461v-209l-766 -326z" />
    <glyph glyph-name="equal" unicode="=" horiz-adv-x="1228" 
d="M1130 829v-208h-1032v208h1032zM1130 416v-209h-1032v209h1032z" />
    <glyph glyph-name="greater" unicode="&#x3e;" horiz-adv-x="1228" 
d="M94 193l766 325l-766 326v209l1041 -461v-148l-1041 -460v209z" />
    <glyph glyph-name="question" unicode="?" 
d="M334 997h-234q-2 226 132.5 363t359.5 137q194 0 320 -111t126 -303q0 -40 -6 -76t-13 -62t-24 -53.5t-27.5 -42.5t-35.5 -39.5t-35 -33t-39 -33.5q-42 -36 -60 -52t-47 -50t-41 -63.5t-22 -76.5t-10 -104h-221q0 118 18 195t50 123.5t91 97.5q6 6 35.5 30.5t37 31.5
t29 29t28 35.5t18 36t15 46.5t3.5 53q0 59 -20.5 105t-52 71.5t-64.5 38.5t-63 13q-123 0 -185.5 -82t-62.5 -224zM426 0v256h274v-256h-274z" />
    <glyph glyph-name="at" unicode="@" horiz-adv-x="1638" 
d="M739 442q77 0 143.5 60.5t102 144t35.5 160.5q0 72 -48 126t-114 54q-61 0 -115.5 -34t-90 -87t-56.5 -116t-21 -121q0 -83 45 -135t119 -52zM1260 1110l-148 -539q-45 -141 21 -141q99 0 182.5 130.5t83.5 311.5q0 148 -74.5 261.5t-198.5 172t-274 58.5
q-170 0 -305.5 -82t-209 -222t-73.5 -310q0 -195 79.5 -344.5t216.5 -228.5t310 -79q133 0 255.5 54t205.5 149h144q-98 -158 -261 -247t-352 -89q-157 0 -297 58.5t-242.5 161.5t-162.5 252t-60 321q0 152 60.5 289.5t162 235.5t240 156t289.5 58q182 0 338.5 -75.5
t252 -214.5t95.5 -310q0 -118 -34.5 -221t-88 -172.5t-119 -120t-127.5 -73.5t-114 -23q-50 0 -84 31t-37 88h-4q-45 -50 -106.5 -83.5t-123.5 -33.5q-126 0 -212.5 94t-86.5 227q0 98 33 193t90.5 170t143 121.5t182.5 46.5q156 0 229 -148l37 117h144z" />
    <glyph glyph-name="A" unicode="A" horiz-adv-x="1366" 
d="M678 1210l-221 -628h446l-219 628h-6zM-14 0l561 1462h272l563 -1462h-274l-137 387h-584l-137 -387h-264z" />
    <glyph glyph-name="B" unicode="B" horiz-adv-x="1441" 
d="M412 666v-457h452q117 0 181.5 60.5t64.5 170.5q0 107 -64.5 166.5t-181.5 59.5h-452zM156 0v1462h710q202 0 318 -92t116 -270q0 -109 -53.5 -189t-154.5 -123v-4q133 -29 203.5 -127.5t70.5 -248.5q0 -88 -31.5 -160.5t-95 -129t-169 -87.5t-243.5 -31h-671zM412 1253
v-403h417q95 0 155 53.5t60 149.5q0 107 -53.5 153.5t-161.5 46.5h-417z" />
    <glyph glyph-name="C" unicode="C" horiz-adv-x="1478" 
d="M1399 997h-256q-35 135 -124 213t-241 78q-113 0 -200.5 -47t-139.5 -127t-78 -177t-26 -206t26 -206t78 -177t139.5 -127t200.5 -47q163 0 260 107.5t113 275.5h250q-15 -264 -187 -428t-436 -164q-160 0 -293.5 61t-221.5 165.5t-136.5 243.5t-48.5 296t48.5 296
t136.5 243.5t221.5 165.5t293.5 61q254 -2 426 -135.5t195 -364.5z" />
    <glyph glyph-name="D" unicode="D" horiz-adv-x="1478" 
d="M412 1253v-1044h252q117 0 204.5 27t140.5 72t85.5 113.5t44.5 142t12 167.5t-12 167.5t-44.5 142t-85.5 113.5t-140.5 72t-204.5 27h-252zM156 0v1462h606q164 0 290 -57t202.5 -158t114.5 -231t38 -285t-38 -285t-114.5 -231t-202.5 -158t-290 -57h-606z" />
    <glyph glyph-name="E" unicode="E" horiz-adv-x="1290" 
d="M156 0v1462h1052v-221h-796v-383h737v-209h-737v-428h811v-221h-1067z" />
    <glyph glyph-name="F" unicode="F" horiz-adv-x="1214" 
d="M156 0v1462h1009v-221h-753v-383h661v-209h-661v-649h-256z" />
    <glyph glyph-name="G" unicode="G" horiz-adv-x="1554" 
d="M1432 770v-770h-164l-39 172q-100 -114 -202 -160.5t-239 -46.5q-160 0 -293.5 61t-221.5 165.5t-136.5 243.5t-48.5 296t48.5 296t136.5 243.5t221.5 165.5t293.5 61q162 0 295 -55t223 -170t109 -275h-250q-18 139 -124.5 215t-252.5 76q-113 0 -200.5 -47t-139.5 -127
t-78 -177t-26 -206t26 -206t78 -177t139.5 -127t200.5 -47q194 -3 300.5 104.5t109.5 296.5h-389v195h623z" />
    <glyph glyph-name="H" unicode="H" horiz-adv-x="1478" 
d="M150 0v1462h256v-581h665v581h256v-1462h-256v659h-665v-659h-256z" />
    <glyph glyph-name="I" unicode="I" horiz-adv-x="569" 
d="M156 0v1462h256v-1462h-256z" />
    <glyph glyph-name="J" unicode="J" horiz-adv-x="1099" 
d="M944 1462v-991q0 -59 -4.5 -108t-17.5 -103t-35 -95.5t-58.5 -80t-86 -64t-120.5 -40.5t-159 -15q-113 0 -198 35.5t-136.5 99.5t-76.5 148t-25 186v78h256v-76q0 -132 44 -197t156 -65q118 0 161.5 68.5t43.5 214.5v1005h256z" />
    <glyph glyph-name="K" unicode="K" horiz-adv-x="1402" 
d="M156 0v1462h256v-665l651 665h315l-583 -583l624 -879h-319l-479 698l-209 -206v-492h-256z" />
    <glyph glyph-name="L" unicode="L" horiz-adv-x="1175" 
d="M156 0v1462h256v-1241h743v-221h-999z" />
    <glyph glyph-name="M" unicode="M" horiz-adv-x="1820" 
d="M152 0v1462h360l403 -1145h5l393 1145h356v-1462h-244v1128h-4l-405 -1128h-211l-406 1128h-4v-1128h-243z" />
    <glyph glyph-name="N" unicode="N" horiz-adv-x="1478" 
d="M145 0v1462h271l667 -1077h4v1077h244v-1462h-270l-666 1075h-6v-1075h-244z" />
    <glyph glyph-name="O" unicode="O" horiz-adv-x="1556" 
d="M778 1497q160 0 293.5 -61t222 -165.5t137 -243.5t48.5 -296t-48.5 -296t-137 -243.5t-222 -165.5t-293.5 -61t-293.5 61t-221.5 165.5t-136.5 243.5t-48.5 296t48.5 296t136.5 243.5t221.5 165.5t293.5 61zM778 1288q-113 0 -200.5 -47t-139.5 -127t-78 -177t-26 -206
t26 -206t78 -177t139.5 -127t200.5 -47q91 0 166 31t126 84t86 124.5t51 151.5t16 166t-16 166t-51 151.5t-86 124.5t-126 84t-166 31z" />
    <glyph glyph-name="P" unicode="P" horiz-adv-x="1366" 
d="M412 1253v-483h374q46 0 89 12.5t81.5 39t62 75.5t23.5 115q0 70 -19.5 119t-56 74.5t-79 36.5t-96.5 11h-379zM156 0v1462h645q120 0 211.5 -30t144.5 -76t86 -109t44 -119.5t11 -117.5q0 -60 -11 -116.5t-44 -119.5t-86 -108.5t-144.5 -75.5t-211.5 -29h-389v-561h-256
z" />
    <glyph glyph-name="Q" unicode="Q" horiz-adv-x="1556" 
d="M942 209l-147 129l123 141l178 -155q127 153 127 407q0 86 -16 166t-51 151.5t-86 124.5t-126 84t-166 31q-113 0 -200.5 -47t-139.5 -127t-78 -177t-26 -206t26 -206t78 -177t139.5 -127t200.5 -47q93 0 164 35zM1272 170l188 -164l-125 -139l-213 186
q-157 -88 -344 -88q-160 0 -293.5 61t-221.5 165.5t-136.5 243.5t-48.5 296t48.5 296t136.5 243.5t221.5 165.5t293.5 61t293.5 -61t222 -165.5t137 -243.5t48.5 -296q0 -161 -51.5 -311.5t-155.5 -249.5z" />
    <glyph glyph-name="R" unicode="R" horiz-adv-x="1441" 
d="M412 1253v-456h419q122 0 186 59t64 174q0 54 -14 94.5t-36.5 64.5t-57 39t-69 20t-77.5 5h-415zM156 0v1462h698q236 0 359.5 -103.5t123.5 -291.5q0 -79 -21.5 -144.5t-49 -102.5t-66.5 -66t-60 -38.5t-44 -17.5v-4q37 -5 71.5 -21.5t69 -50t55.5 -94.5t21 -143
q0 -134 20 -238.5t60 -146.5h-275q-18 29 -27 70t-10.5 68.5t-1.5 76.5q0 106 -12.5 174.5t-44.5 118.5t-89 72t-145 22h-376v-602h-256z" />
    <glyph glyph-name="S" unicode="S" horiz-adv-x="1327" 
d="M68 487h256q0 -82 28.5 -143.5t80 -98t117 -54t144.5 -17.5q157 0 233.5 64t76.5 157q0 133 -121 180q-46 17 -105.5 34t-160.5 42.5t-171 44.5q-323 88 -323 371q0 106 46 190t122.5 135.5t170 78t195.5 26.5q116 0 217 -30.5t178.5 -88t122 -147.5t44.5 -201h-256
q-9 135 -92.5 196.5t-223.5 61.5q-48 0 -92.5 -9.5t-85.5 -30t-65.5 -59.5t-24.5 -91q0 -140 174 -189q376 -98 422 -112q137 -41 211 -146t74 -227q0 -118 -49.5 -209t-133.5 -144t-185 -79.5t-214 -26.5q-128 0 -236 31.5t-191.5 93.5t-132 163.5t-50.5 233.5z" />
    <glyph glyph-name="T" unicode="T" horiz-adv-x="1214" 
d="M16 1241v221h1184v-221h-465v-1241h-256v1241h-463z" />
    <glyph glyph-name="U" unicode="U" horiz-adv-x="1478" 
d="M139 526v936h256v-852q0 -52 1.5 -86.5t8.5 -83t20.5 -81t39 -68t61 -56.5t90 -35t123.5 -14t123.5 14t90 35t61 56.5t39 68t20.5 81t8.5 83t1.5 86.5v852h256v-936q0 -274 -161 -417.5t-439 -143.5t-439 143.5t-161 417.5z" />
    <glyph glyph-name="V" unicode="V" horiz-adv-x="1251" 
d="M477 0l-487 1462h266l367 -1157h4l374 1157h261l-500 -1462h-285z" />
    <glyph glyph-name="W" unicode="W" horiz-adv-x="1933" 
d="M397 0l-385 1462h260l265 -1118h4l295 1118h262l286 -1118h5l272 1118h260l-403 -1462h-261l-292 1118h-4l-299 -1118h-265z" />
    <glyph glyph-name="X" unicode="X" horiz-adv-x="1327" 
d="M512 758l-483 704h305l332 -516l346 516h286l-483 -704l518 -758h-311l-365 559l-370 -559h-293z" />
    <glyph glyph-name="Y" unicode="Y" horiz-adv-x="1327" 
d="M537 0v573l-549 889h297l387 -655l381 655h286l-546 -889v-573h-256z" />
    <glyph glyph-name="Z" unicode="Z" horiz-adv-x="1290" 
d="M113 1241v221h1112v-194l-852 -1047h872v-221h-1198v209l852 1032h-786z" />
    <glyph glyph-name="bracketleft" unicode="[" horiz-adv-x="606" 
d="M147 -391v1888h457v-184h-235v-1520h235v-184h-457z" />
    <glyph glyph-name="backslash" unicode="\" horiz-adv-x="720" 
d="M178 1497l588 -1532h-223l-588 1532h223z" />
    <glyph glyph-name="bracketright" unicode="]" horiz-adv-x="606" 
d="M459 1497v-1888h-457v184h236v1520h-236v184h457z" />
    <glyph glyph-name="asciicircum" unicode="^" horiz-adv-x="1228" 
d="M381 686h-209l369 748h147l369 -748h-209l-234 506z" />
    <glyph glyph-name="underscore" unicode="_" horiz-adv-x="1024" 
d="M1024 -256h-1024v102h1024v-102z" />
    <glyph glyph-name="grave" unicode="`" horiz-adv-x="493" 
d="M-59 1497h274l186 -293h-170z" />
    <glyph glyph-name="a" unicode="a" 
d="M776 356v174q-32 -21 -76.5 -32t-114 -18.5t-96.5 -12.5q-88 -14 -139 -53t-51 -123q0 -37 21.5 -64.5t55.5 -42t69 -21.5t69 -7q41 0 84.5 11t84.5 33.5t67 63t26 92.5zM1010 780v-544q0 -44 11.5 -62t43.5 -18t57 4v-162q-79 -27 -147 -27q-156 0 -180 129
q-65 -64 -165.5 -96.5t-201.5 -32.5q-98 0 -178.5 33.5t-132 105.5t-51.5 171q0 55 13 100t33 76.5t53 56.5t64.5 40t77 27t81.5 17.5t85 11.5q33 6 81 12.5t77 10t63 12.5t52.5 22t31.5 36.5t13 56.5q0 43 -20.5 73t-55.5 44.5t-69.5 20t-74.5 5.5q-102 0 -164 -42
t-69 -126h-234q6 98 48.5 169t112 109.5t149 56t172.5 17.5q81 0 154 -17t135 -52t98.5 -96.5t36.5 -141.5z" />
    <glyph glyph-name="b" unicode="b" horiz-adv-x="1251" 
d="M944 528q0 99 -32 182.5t-100 138t-161 54.5q-144 0 -220.5 -101t-76.5 -274q0 -164 79.5 -268t217.5 -104q62 0 112 21t83.5 56.5t55.5 84t32 101t10 109.5zM129 0v1462h233v-540h5q46 75 134.5 120t180.5 45q98 0 179.5 -29t139.5 -80.5t98.5 -122t59.5 -154t19 -177.5
q0 -110 -28 -207.5t-82.5 -175.5t-144 -124t-202.5 -46q-279 0 -367 174h-4v-145h-221z" />
    <glyph glyph-name="c" unicode="c" 
d="M1071 705h-233q-13 95 -78 146.5t-164 51.5q-40 0 -77 -8.5t-77.5 -34.5t-69.5 -67t-48 -112t-19 -163q0 -69 16 -131.5t48 -115t88 -84t129 -31.5q101 0 168 63.5t84 177.5h233q-32 -206 -157 -316t-328 -110q-162 0 -279.5 72.5t-176 195t-58.5 279.5q0 121 33 223.5
t97 180t164.5 121.5t227.5 44q195 0 327.5 -97.5t149.5 -284.5z" />
    <glyph glyph-name="d" unicode="d" horiz-adv-x="1251" 
d="M305 518q0 -95 30 -175t98 -133.5t165 -53.5q75 0 134 32t93.5 86.5t52 119t17.5 136.5q0 174 -78.5 273.5t-214.5 99.5q-64 0 -115 -22t-84.5 -58.5t-56 -87t-32 -104.5t-9.5 -113zM1120 1462v-1462h-221v143h-4q-43 -86 -132 -129t-196 -43q-122 0 -217.5 43.5
t-155.5 121t-91 179t-31 222.5q0 111 25.5 203.5t69 156t102.5 107t124.5 63.5t136.5 20q109 0 205.5 -41t147.5 -124h4v540h233z" />
    <glyph glyph-name="e" unicode="e" 
d="M1083 469h-778q0 -86 29.5 -155t95.5 -113.5t160 -44.5q196 0 258 176h221q-37 -169 -169 -265t-310 -96q-244 0 -381 153.5t-137 403.5q0 113 36 214.5t101 178t162.5 121.5t212.5 45q122 0 224 -52t166 -138t94 -198t15 -230zM305 623h545q-6 116 -79 198t-187 82
q-120 0 -197 -80t-82 -200z" />
    <glyph glyph-name="f" unicode="f" horiz-adv-x="645" 
d="M18 885v174h175v88q0 78 16.5 136t42 91.5t65.5 54t79 27t89 6.5q112 0 164 -14v-182q-46 12 -108 12q-115 0 -115 -111v-108h199v-174h-199v-885h-233v885h-175z" />
    <glyph glyph-name="g" unicode="g" horiz-adv-x="1214" 
d="M584 184q74 0 131 32t89 85.5t48 117t16 134.5t-16.5 132t-49 111t-89 78.5t-129.5 28.5q-74 0 -130 -32t-87.5 -86.5t-46.5 -117t-15 -132.5q0 -92 28 -169t93 -129.5t158 -52.5zM1102 1059v-1004q0 -236 -133.5 -355.5t-386.5 -119.5q-85 0 -162 17.5t-146 54
t-113.5 103t-51.5 155.5h233q20 -91 85 -123.5t169 -32.5q272 0 272 271v161h-4q-49 -87 -133.5 -136.5t-183.5 -49.5q-122 0 -215 44t-149 121.5t-83.5 176t-27.5 215.5q0 144 56 263.5t166.5 193t256.5 73.5q104 0 187 -44t126 -130h4v146h234z" />
    <glyph glyph-name="h" unicode="h" horiz-adv-x="1175" 
d="M123 0v1462h233v-542h4q44 74 130 120.5t188 46.5q175 0 275 -92.5t100 -267.5v-727h-234v666q-3 124 -53 180.5t-154 56.5q-115 0 -185.5 -79.5t-70.5 -198.5v-625h-233z" />
    <glyph glyph-name="i" unicode="i" horiz-adv-x="493" 
d="M129 0v1059h233v-1059h-233zM129 1241v221h233v-221h-233z" />
    <glyph glyph-name="j" unicode="j" horiz-adv-x="493" 
d="M129 -80v1139h233v-1149q0 -164 -71.5 -247t-231.5 -83q-42 0 -104 8v185q70 -9 80 -9q60 0 77 34.5t17 121.5zM129 1241v221h233v-221h-233z" />
    <glyph glyph-name="k" unicode="k" horiz-adv-x="1099" 
d="M129 0v1462h233v-831l422 428h287l-405 -389l444 -670h-285l-323 514l-140 -135v-379h-233z" />
    <glyph glyph-name="l" unicode="l" horiz-adv-x="493" 
d="M129 0v1462h233v-1462h-233z" />
    <glyph glyph-name="m" unicode="m" horiz-adv-x="1781" 
d="M123 0v1059h221v-148h6q58 86 133 131t193 45q102 0 182.5 -44.5t114.5 -131.5q62 86 141.5 131t190.5 45q174 0 264 -84.5t90 -271.5v-731h-234v618q0 60 -2.5 95.5t-13 76.5t-30.5 62.5t-56.5 36t-89.5 14.5q-225 0 -225 -282v-621h-234v680q0 114 -42 168.5t-144 54.5
q-96 0 -164 -74t-68 -200v-629h-233z" />
    <glyph glyph-name="n" unicode="n" horiz-adv-x="1175" 
d="M123 0v1059h221v-156l4 -4q53 88 139.5 138t190.5 50q175 0 275 -92.5t100 -267.5v-727h-234v666q-3 124 -53 180.5t-154 56.5q-115 0 -185.5 -79.5t-70.5 -198.5v-625h-233z" />
    <glyph glyph-name="o" unicode="o" horiz-adv-x="1214" 
d="M608 156q61 0 111.5 21.5t85 57.5t58.5 84t35 101.5t11 109.5q0 71 -18 135.5t-53.5 118.5t-95 86.5t-134.5 32.5t-134.5 -32.5t-95 -86.5t-53.5 -118.5t-18 -135.5q0 -56 11 -109.5t35 -101.5t58.5 -84t85 -57.5t111.5 -21.5zM608 -29q-250 0 -392 154.5t-142 404.5
q0 163 62 288t184 197t288 72q250 0 392.5 -154.5t142.5 -402.5q0 -250 -142.5 -404.5t-392.5 -154.5z" />
    <glyph glyph-name="p" unicode="p" horiz-adv-x="1251" 
d="M944 528q0 99 -32 182.5t-100 138t-161 54.5q-144 0 -220.5 -101t-76.5 -274q0 -164 79.5 -268t217.5 -104q62 0 112 21t83.5 56.5t55.5 84t32 101t10 109.5zM129 -391v1450h221v-144h4q47 87 134 129.5t194 42.5q98 0 179.5 -29t139.5 -80.5t98.5 -122t59.5 -154
t19 -177.5q0 -110 -28 -207.5t-82.5 -175.5t-144 -124t-202.5 -46q-109 0 -205 41.5t-149 124.5h-5v-528h-233z" />
    <glyph glyph-name="q" unicode="q" horiz-adv-x="1251" 
d="M305 528q0 -57 10 -109.5t32 -101t55.5 -84t83.5 -56.5t112 -21q148 0 222.5 100t74.5 272q0 175 -76.5 275t-220.5 100q-93 0 -161 -54.5t-100 -138t-32 -182.5zM1120 1059v-1450h-233v528h-4q-53 -83 -149.5 -124.5t-205.5 -41.5q-113 0 -202.5 46t-143.5 124
t-82 175.5t-28 207.5q0 94 19 177.5t59 154.5t98 122t139.5 80t179.5 29q107 0 194 -42.5t134 -129.5h4v144h221z" />
    <glyph glyph-name="r" unicode="r" horiz-adv-x="720" 
d="M123 0v1059h219v-205h4q21 88 113 160.5t196 72.5q28 0 88 -6v-225q-83 10 -100 10q-125 0 -206 -96.5t-81 -265.5v-504h-233z" />
    <glyph glyph-name="s" unicode="s" horiz-adv-x="1062" 
d="M66 340h233q9 -96 74 -140t166 -44q40 0 76 5t75.5 18.5t62.5 43t21 72.5q-1 26 -11 46.5t-31.5 36t-42 26t-57 20.5t-61.5 16t-71.5 15.5t-71.5 15.5q-59 13 -102.5 26.5t-91 38t-77.5 56t-49.5 81t-19.5 111.5q0 67 27.5 120t72 86.5t104 56t118.5 31.5t120 9
q84 0 157 -18t134.5 -55.5t101 -101.5t50.5 -150h-244q-25 141 -215 141q-30 0 -59.5 -4.5t-61.5 -15t-51.5 -33.5t-19.5 -55q0 -24 9 -43.5t30 -34t41 -25t57.5 -20.5t62.5 -16t72 -15.5t72 -15.5q59 -13 102 -27t91 -39t78.5 -56t50.5 -79.5t20 -108.5q0 -90 -42.5 -159
t-113 -108t-150.5 -58t-167 -19q-101 0 -185 23t-147.5 67.5t-99.5 115.5t-37 163z" />
    <glyph glyph-name="t" unicode="t" horiz-adv-x="681" 
d="M16 885v174h177v317h233v-317h211v-174h-211v-566q0 -81 20 -113t93 -32q65 0 98 8v-180q-17 -1 -48 -4.5t-56 -5.5t-48 -2q-90 0 -147.5 16.5t-88.5 53.5t-42.5 82.5t-13.5 117.5v625h-177z" />
    <glyph glyph-name="u" unicode="u" horiz-adv-x="1175" 
d="M1053 1059v-1059h-230v147h-4q-42 -78 -127 -127t-174 -49q-204 0 -299.5 103t-95.5 313v672h233v-649q0 -135 51.5 -194.5t151.5 -59.5q260 0 260 288v615h234z" />
    <glyph glyph-name="v" unicode="v" horiz-adv-x="1062" 
d="M403 0l-385 1059h254l269 -813h4l258 813h241l-378 -1059h-263z" />
    <glyph glyph-name="w" unicode="w" horiz-adv-x="1593" 
d="M354 0l-327 1059h247l207 -791h4l199 791h236l190 -791h4l215 791h238l-332 -1059h-240l-196 786h-4l-195 -786h-246z" />
    <glyph glyph-name="x" unicode="x" horiz-adv-x="1099" 
d="M8 0l400 557l-367 502h283l221 -326l231 326h271l-361 -490l406 -569h-281l-268 391l-260 -391h-275z" />
    <glyph glyph-name="y" unicode="y" horiz-adv-x="1062" 
d="M408 4l-402 1055h256l277 -791h4l268 791h244l-412 -1116q-59 -147 -84 -193q-69 -122 -179 -155q-50 -15 -112 -15q-82 0 -162 12v197q86 -14 111 -14q75 0 107 34t57 113z" />
    <glyph glyph-name="z" unicode="z" horiz-adv-x="1024" 
d="M86 874v185h860v-164l-606 -711h637v-184h-932v164l586 710h-545z" />
    <glyph glyph-name="braceleft" unicode="{" horiz-adv-x="606" 
d="M-8 461v184q25 0 54.5 7t62 22.5t54 47t21.5 73.5v422q0 55 19 103t48 79.5t65 54t69 33t61 10.5h187v-184h-113q-30 0 -51.5 -9.5t-33.5 -23.5t-19 -34.5t-8.5 -37.5t-1.5 -39v-399q-1 -58 -24 -101.5t-59.5 -66t-67.5 -33t-62 -14.5v-4q27 -2 48 -6.5t54 -19t55 -37
t38.5 -65t17.5 -99.5v-387q0 -22 1.5 -39t8.5 -37.5t19 -34.5t33.5 -23.5t51.5 -9.5h113v-184h-187q-28 0 -61 10.5t-69 33t-65 54t-48 79.5t-19 103v406q0 47 -21.5 81.5t-54 51.5t-62 25t-54.5 8z" />
    <glyph glyph-name="bar" unicode="|" horiz-adv-x="454" 
d="M123 -438v2048h209v-2048h-209z" />
    <glyph glyph-name="braceright" unicode="}" horiz-adv-x="606" 
d="M614 645v-184q-25 0 -54.5 -7t-62 -22.5t-54 -47t-21.5 -73.5v-422q0 -55 -19 -103t-48 -79.5t-65 -54t-69 -33t-61 -10.5h-187v184h113q37 0 61.5 13t35.5 37t14.5 45t3.5 49v399q1 58 24 101.5t59.5 66t67.5 33t62 14.5v4q-27 2 -48 6.5t-54 19t-55 37t-38.5 65
t-17.5 99.5v387q0 28 -3.5 49t-14.5 45t-35.5 37t-61.5 13h-113v184h187q28 0 61 -10.5t69 -33t65 -54t48 -79.5t19 -103v-406q0 -47 21.5 -81.5t54 -51.5t62 -25t54.5 -8z" />
    <glyph glyph-name="asciitilde" unicode="~" horiz-adv-x="1228" 
d="M1014 692l73 -172q-23 -32 -38.5 -52t-41 -46.5t-49.5 -41t-57 -25.5t-70 -11q-52 0 -99 17t-109 51q-127 71 -236 71q-60 0 -100 -38.5t-72 -100.5l-74 172q92 176 256 176q83 0 228 -65q14 -6 44.5 -20t47.5 -21t40.5 -16t42 -13t34.5 -4q36 0 70.5 22t52.5 43t48 62
q3 4 5 6.5t4 5.5z" />
    <glyph glyph-name="uni00A0" unicode="&#xa0;" horiz-adv-x="569" 
 />
    <glyph glyph-name="exclamdown" unicode="&#xa1;" horiz-adv-x="569" 
d="M414 43v-418h-256v418l67 637h121zM422 1087v-256h-275v256h275z" />
    <glyph glyph-name="cent" unicode="&#xa2;" 
d="M549 156v747q-65 -6 -113 -42.5t-75 -93t-39.5 -119t-12.5 -130.5q0 -87 23 -161t79 -131t138 -70zM549 -213v184q-144 0 -253 75.5t-164.5 198.5t-55.5 273q0 256 132 412.5t341 156.5v185h88v-185q175 0 299 -104t137 -278h-233q-11 88 -66.5 143t-136.5 55v-747
q186 30 211 241h233q-37 -201 -148 -313.5t-296 -112.5v-184h-88z" />
    <glyph glyph-name="sterling" unicode="&#xa3;" 
d="M63 653v133h130q-45 56 -71 135t-26 154q0 123 70.5 221.5t179 149.5t229.5 51q240 0 377 -129t138 -377h-234q-14 312 -276 312q-98 0 -163 -64t-65 -176q0 -102 94 -277h302v-133h-252q32 -62 32 -137q0 -184 -206 -336l4 -4q5 2 34.5 14.5t40 16.5t33.5 11.5t42 10
t38 2.5q66 0 166 -34q92 -37 151 -37q108 0 199 78l105 -158q-74 -64 -149.5 -89.5t-178.5 -25.5q-39 0 -115 14.5t-88 16.5q-139 41 -215 41q-54 0 -111.5 -19t-95.5 -51l-108 166q85 58 153 151t68 181q0 100 -43 188h-189z" />
    <glyph glyph-name="currency" unicode="&#xa4;" 
d="M156 184l-115 115l117 125q-103 115 -103 291q0 88 26 167t77 128l-117 125l117 116l116 -114q51 43 132 68.5t167 25.5q81 0 158 -25.5t123 -66.5l119 116l125 -125l-115 -118q45 -49 70.5 -128t25.5 -165q0 -181 -98 -299l113 -121l-113 -113l-117 119
q-50 -49 -128.5 -75.5t-164.5 -26.5q-192 0 -301 100zM571 412q123 0 205 90t82 217q0 124 -82 213.5t-203 89.5q-127 0 -212 -89t-85 -218q0 -126 85.5 -214.5t209.5 -88.5z" />
    <glyph glyph-name="yen" unicode="&#xa5;" 
d="M453 0v338h-281v133h281v139h-281v133h201l-383 719h260l319 -655l326 655h254l-385 -719h203v-133h-281v-139h281v-133h-281v-338h-233z" />
    <glyph glyph-name="brokenbar" unicode="&#xa6;" horiz-adv-x="454" 
d="M123 -182v512h209v-512h-209zM123 842v512h209v-512h-209z" />
    <glyph glyph-name="section" unicode="&#xa7;" 
d="M731 635l-340 194q-56 -15 -90.5 -60t-34.5 -103q0 -96 113 -160l373 -209q122 53 122 168q0 47 -31 86t-112 84zM993 1110h-221q-3 88 -55 145.5t-137 57.5q-66 0 -117 -43.5t-51 -110.5q0 -21 5.5 -40.5t18.5 -38t25.5 -33t37 -32.5t41 -29t49.5 -29t50.5 -27
t56.5 -28.5t56 -27.5q60 -31 101.5 -55t91 -61.5t79.5 -74.5t51 -88t21 -108q0 -96 -62.5 -179.5t-154.5 -114.5q57 -47 84.5 -109.5t27.5 -153.5q0 -84 -33.5 -151.5t-90 -110.5t-129 -65.5t-152.5 -22.5q-193 0 -315 110.5t-128 309.5h222q8 -111 61.5 -173.5t153.5 -62.5
q81 0 129.5 40.5t48.5 125.5q0 24 -5.5 46.5t-19.5 43.5t-26.5 37.5t-38.5 36l-42 31.5t-51 31.5t-52.5 29t-59 30.5t-57.5 30q-63 32 -107 57t-96 63.5t-83.5 76t-53 89t-21.5 107.5q0 212 221 305q-88 91 -88 207q0 79 35.5 146t93 109.5t129 66.5t146.5 24
q117 0 209.5 -45.5t146.5 -134.5t55 -207z" />
    <glyph glyph-name="dieresis" unicode="&#xa8;" horiz-adv-x="493" 
d="M307 1448h234v-221h-234v221zM188 1227h-233v221h233v-221z" />
    <glyph glyph-name="copyright" unicode="&#xa9;" horiz-adv-x="1638" 
d="M1571 731q0 -168 -61 -313t-163.5 -243.5t-239 -154t-286.5 -55.5q-162 0 -302.5 58.5t-239.5 160.5t-155 243.5t-56 303.5q0 224 104 401t275 271t374 94q150 0 286.5 -55.5t239 -154t163.5 -243.5t61 -313zM1407 731q0 137 -45.5 255.5t-124 201t-186.5 129.5t-230 47
q-123 0 -232 -47t-188 -129.5t-124.5 -201t-45.5 -255.5q0 -130 41.5 -245.5t116 -201.5t186.5 -136t246 -50q122 0 230 46.5t186.5 129t124 201t45.5 256.5zM1067 584h141q-26 -145 -125.5 -230.5t-236.5 -85.5q-194 0 -314 131t-120 332q0 124 51.5 223t150 157.5
t228.5 59.5q144 0 244 -81t120 -228h-139q-15 79 -76.5 127.5t-148.5 48.5q-125 0 -196 -87t-71 -220q0 -138 75 -234t196 -96q90 0 150 51t71 132z" />
    <glyph glyph-name="ordfeminine" unicode="&#xaa;" horiz-adv-x="778" 
d="M500 1006v90q-33 -16 -172 -39q-55 -9 -86 -29.5t-31 -62.5q0 -39 30.5 -53.5t84.5 -14.5q174 0 174 109zM678 1272v-309q0 -25 6.5 -35.5t28.5 -9.5q18 0 32 2v-140q-46 -16 -96 -16q-57 0 -87.5 22.5t-39.5 77.5q-28 -42 -101 -71t-138 -29q-103 0 -176.5 50.5
t-73.5 139.5q0 33 9.5 60t21.5 45.5t37 34.5t43.5 24.5t53.5 17.5t53.5 12.5t57.5 10.5q119 20 141 28q50 17 50 50q0 31 -11 51t-32 28t-37.5 10.5t-42.5 2.5q-66 0 -103 -19t-41 -67h-174q6 61 36 105.5t77 68.5t100 34.5t115 10.5q75 0 138.5 -18.5t108 -63t44.5 -108.5z
" />
    <glyph glyph-name="guillemotleft" unicode="&#xab;" horiz-adv-x="948" 
d="M420 190l-318 252v230l318 252v-211l-195 -156l195 -156v-211zM825 190l-317 252v230l317 252v-211l-194 -156l194 -156v-211z" />
    <glyph glyph-name="logicalnot" unicode="&#xac;" horiz-adv-x="1228" 
d="M922 221v400h-824v208h1032v-608h-208z" />
    <glyph glyph-name="uni00AD" unicode="&#xad;" horiz-adv-x="796" 
d="M100 446v222h596v-222h-596z" />
    <glyph glyph-name="registered" unicode="&#xae;" horiz-adv-x="1638" 
d="M670 655v-362h-140v848h322q156 0 232.5 -58.5t76.5 -185.5q0 -207 -221 -231l238 -373h-158l-219 362h-131zM670 774h155q36 0 61 2t53 9.5t44.5 21.5t27.5 39t11 61t-16 60.5t-45.5 35.5t-57.5 15t-65 4h-168v-248zM1571 731q0 -168 -61 -313t-163.5 -243.5t-239 -154
t-286.5 -55.5q-162 0 -302.5 58.5t-239.5 160.5t-155 243.5t-56 303.5q0 224 104 401t275 271t374 94q150 0 286.5 -55.5t239 -154t163.5 -243.5t61 -313zM1407 731q0 137 -45.5 255.5t-124 201t-186.5 129.5t-230 47q-123 0 -232 -47t-188 -129.5t-124.5 -201t-45.5 -255.5
q0 -130 41.5 -245.5t116 -201.5t186.5 -136t246 -50q122 0 230 46.5t186.5 129t124 201t45.5 256.5z" />
    <glyph glyph-name="macron" unicode="&#xaf;" horiz-adv-x="493" 
d="M543 1268h-590v133h590v-133z" />
    <glyph glyph-name="degree" unicode="&#xb0;" horiz-adv-x="819" 
d="M102 1155q0 127 90 217t218 90t217.5 -90t89.5 -217t-89.5 -217t-217.5 -90t-218 90t-90 217zM217 1155q0 -79 56.5 -135.5t136.5 -56.5t136 56.5t56 135.5q0 80 -56.5 136.5t-135.5 56.5q-80 0 -136.5 -57t-56.5 -136z" />
    <glyph glyph-name="plusminus" unicode="&#xb1;" horiz-adv-x="1228" 
d="M510 780v256h209v-256h411v-209h-411v-256h-209v256h-412v209h412zM98 0v209h1032v-209h-1032z" />
    <glyph glyph-name="twosuperior" unicode="&#xb2;" horiz-adv-x="737" 
d="M688 702v-143h-645q1 119 53.5 203.5t151.5 146.5q21 14 74 46.5t79 51.5t61 50t51 64t17 71q0 63 -42.5 95t-106.5 32q-53 0 -87 -29t-47.5 -69t-15.5 -93h-178q0 155 90.5 244.5t245.5 89.5q139 0 229.5 -66.5t90.5 -199.5q0 -48 -17 -91.5t-49 -79t-65 -62.5t-78 -56
q-22 -15 -62.5 -39.5t-64 -40t-51.5 -37t-45 -43.5t-25 -45h436z" />
    <glyph glyph-name="threesuperior" unicode="&#xb3;" horiz-adv-x="737" 
d="M299 973v119q86 -3 146.5 27.5t60.5 97.5q0 51 -43 76.5t-98 25.5q-68 0 -110.5 -44.5t-39.5 -111.5h-164q6 141 90.5 220t225.5 79q60 0 112 -13t96 -40t69.5 -74t25.5 -110q0 -66 -33 -114t-98 -71v-4q78 -13 123 -71.5t45 -143.5q0 -131 -96.5 -205.5t-241.5 -74.5
q-164 0 -248.5 82.5t-87.5 234.5h164q-3 -75 43 -124.5t129 -49.5q74 0 124 39.5t50 105.5q0 47 -20 78t-57.5 45t-76.5 18.5t-90 2.5z" />
    <glyph glyph-name="acute" unicode="&#xb4;" horiz-adv-x="493" 
d="M92 1204l184 293h277l-291 -293h-170z" />
    <glyph glyph-name="mu" unicode="&#xb5;" horiz-adv-x="1175" 
d="M1053 1059v-1059h-230v147h-4q-41 -77 -123 -126.5t-155 -49.5q-122 0 -185 74v-436h-233v1450h233v-649q0 -135 51.5 -194.5t151.5 -59.5q260 0 260 288v615h234z" />
    <glyph glyph-name="paragraph" unicode="&#xb6;" horiz-adv-x="1228" 
d="M504 -328v1033q-198 0 -319.5 104.5t-121.5 267.5q0 198 127 291.5t351 93.5h530v-1790h-164v1657h-239v-1657h-164z" />
    <glyph glyph-name="periodcentered" unicode="&#xb7;" horiz-adv-x="569" 
d="M131 618q0 60 47 106t107 46q61 0 107 -46t46 -106q0 -62 -45.5 -108.5t-107.5 -46.5q-63 0 -108.5 46.5t-45.5 108.5z" />
    <glyph glyph-name="cedilla" unicode="&#xb8;" horiz-adv-x="493" 
d="M18 -410l37 82q5 -2 25 -8.5t28.5 -9t24.5 -7t29 -6t26 -1.5q125 0 125 84q0 36 -28.5 56.5t-65.5 20.5q-44 0 -80 -20l-45 39l135 180h99l-92 -119v-4q16 6 67 6q68 0 121 -39.5t53 -111.5q0 -50 -21.5 -87t-58.5 -58t-79 -30.5t-89 -9.5q-53 0 -114 11t-97 32z" />
    <glyph glyph-name="onesuperior" unicode="&#xb9;" horiz-adv-x="737" 
d="M74 1182v118q109 0 186.5 35.5t95.5 108.5h144v-885h-178v623h-248z" />
    <glyph glyph-name="ordmasculine" unicode="&#xba;" horiz-adv-x="778" 
d="M582 1112q0 85 -49.5 151t-137.5 66q-89 0 -137.5 -66t-48.5 -151t48.5 -150t137.5 -65q90 0 136 63.5t51 151.5zM760 1112q0 -160 -95 -254t-270 -94t-269.5 94t-94.5 254t94.5 255t269.5 95t270 -95t95 -255z" />
    <glyph glyph-name="guillemotright" unicode="&#xbb;" horiz-adv-x="948" 
d="M123 924l317 -252v-230l-317 -252v211l194 156l-194 156v211zM528 924l318 -252v-230l-318 -252v211l195 156l-195 156v211z" />
    <glyph glyph-name="onequarter" unicode="&#xbc;" horiz-adv-x="1708" 
d="M1473 199v-199h-179v199h-399v166l379 512h199v-525h96v-153h-96zM1294 352v324h-4l-239 -324h243zM76 1182v118q109 0 186.5 35.5t95.5 108.5h144v-885h-178v623h-248zM289 -49l858 1532h160l-856 -1532h-162z" />
    <glyph glyph-name="onehalf" unicode="&#xbd;" horiz-adv-x="1708" 
d="M281 -49l858 1532h159l-856 -1532h-161zM74 1182v118q109 0 186.5 35.5t95.5 108.5h144v-885h-178v623h-248zM1614 143v-143h-645q0 73 19.5 133t58 105.5t75 75t90.5 63.5q20 13 58.5 35.5t58.5 35.5t48.5 35t42.5 41.5t25 48t11 60.5q0 64 -42 100.5t-107 36.5
q-78 0 -112 -57.5t-38 -143.5h-178q0 160 88 252t248 92q140 0 229.5 -70.5t89.5 -205.5q0 -93 -55 -159.5t-154 -129.5q-19 -12 -62 -38.5t-64.5 -40.5t-50.5 -36.5t-45.5 -44t-24.5 -45.5h436z" />
    <glyph glyph-name="threequarters" unicode="&#xbe;" horiz-adv-x="1708" 
d="M1548 199v-199h-178v199h-399v166l375 512h202v-525h97v-153h-97zM1370 352v324h-4l-240 -324h244zM401 -49l859 1532h159l-856 -1532h-162zM299 971v119q86 -3 146.5 28t60.5 99q0 51 -43 76.5t-98 25.5q-68 0 -110.5 -44.5t-39.5 -111.5h-164q6 141 90.5 220t225.5 79
q60 0 112 -13t96 -40t69.5 -74t25.5 -110q0 -66 -33 -114t-98 -71v-4q78 -13 123 -71.5t45 -143.5q0 -131 -96.5 -205.5t-241.5 -74.5q-164 0 -248.5 82.5t-87.5 234.5h164q-3 -75 43 -124.5t129 -49.5q74 0 124 39.5t50 105.5q0 46 -20 76.5t-57.5 44.5t-76.5 18.5t-90 2.5
z" />
    <glyph glyph-name="questiondown" unicode="&#xbf;" 
d="M805 80h233q2 -220 -132.5 -355t-358.5 -135q-193 0 -320 109t-127 295q0 56 11.5 103.5t24.5 76.5t44 64t46 49t55 47q42 36 60 52t47 50t41 63.5t22 76.5t10 104h221q0 -117 -18.5 -194.5t-50.5 -124t-91 -97.5q-6 -6 -35.5 -30.5t-37 -31.5t-29 -29t-28 -35.5t-18 -36
t-15 -46.5t-3.5 -53q0 -55 20.5 -99t52.5 -68.5t65 -37t63 -12.5q122 0 185 80t63 215zM430 1087h275v-256h-275v256z" />
    <glyph glyph-name="Agrave" unicode="&#xc0;" horiz-adv-x="1366" 
d="M678 1210l-221 -628h446l-219 628h-6zM-14 0l561 1462h272l563 -1462h-274l-137 387h-584l-137 -387h-264zM377 1901h274l187 -293h-170z" />
    <glyph glyph-name="Aacute" unicode="&#xc1;" horiz-adv-x="1366" 
d="M678 1210l-221 -628h446l-219 628h-6zM-14 0l561 1462h272l563 -1462h-274l-137 387h-584l-137 -387h-264zM528 1577l185 293h276l-291 -293h-170z" />
    <glyph glyph-name="Acircumflex" unicode="&#xc2;" horiz-adv-x="1366" 
d="M678 1210l-221 -628h446l-219 628h-6zM-14 0l561 1462h272l563 -1462h-274l-137 387h-584l-137 -387h-264zM682 1792l-143 -184h-189l219 293h228l221 -293h-191z" />
    <glyph glyph-name="Atilde" unicode="&#xc3;" horiz-adv-x="1366" 
d="M678 1210l-221 -628h446l-219 628h-6zM-14 0l561 1462h272l563 -1462h-274l-137 387h-584l-137 -387h-264zM930 1866h114q-17 -110 -67 -166q-57 -70 -160 -70q-52 0 -151 39q-109 37 -142 37q-34 0 -60 -27t-26 -57h-116q14 89 70.5 160t142.5 71q76 0 165 -38
q9 -4 33 -13.5t35 -13.5t28 -8t31 -4q79 0 103 90z" />
    <glyph glyph-name="Adieresis" unicode="&#xc4;" horiz-adv-x="1366" 
d="M678 1210l-221 -628h446l-219 628h-6zM-14 0l561 1462h272l563 -1462h-274l-137 387h-584l-137 -387h-264zM743 1851h234v-221h-234v221zM625 1630h-234v221h234v-221z" />
    <glyph glyph-name="Aring" unicode="&#xc5;" horiz-adv-x="1366" 
d="M678 1210l-221 -628h446l-219 628h-6zM-14 0l561 1462h272l563 -1462h-274l-137 387h-584l-137 -387h-264zM684 1528q-85 0 -148 63t-63 148q0 86 63 148.5t148 62.5q86 0 148.5 -62.5t62.5 -148.5q0 -85 -62.5 -148t-148.5 -63zM559 1739q0 -49 37.5 -87t87.5 -38
q51 0 88 37.5t37 87.5q0 51 -37 88t-88 37q-50 0 -87.5 -37t-37.5 -88z" />
    <glyph glyph-name="AE" unicode="&#xc6;" horiz-adv-x="1972" 
d="M862 1241l-321 -672h395v672h-74zM-14 0l727 1462h1179v-221h-712v-383h667v-209h-667v-428h725v-221h-969v375h-490l-176 -375h-284z" />
    <glyph glyph-name="Ccedilla" unicode="&#xc7;" horiz-adv-x="1478" 
d="M1151 557h250q-15 -260 -182 -423.5t-426 -166.5l-66 -86v-4q16 6 68 6q68 0 121 -39.5t53 -111.5q0 -50 -21.5 -87t-58.5 -58t-79 -30.5t-89 -9.5q-53 0 -114 11t-97 32l37 82q5 -2 25 -8.5t28.5 -9t24.5 -7t29 -6t26 -1.5q125 0 125 84q0 36 -28.5 56.5t-65.5 20.5
q-44 0 -80 -20l-45 39l112 149q-143 14 -260.5 80.5t-196 168.5t-121 234t-42.5 279q0 157 48.5 296t136.5 243.5t221.5 165.5t293.5 61q254 -2 426 -135.5t195 -364.5h-256q-35 135 -124 213t-241 78q-113 0 -200.5 -47t-139.5 -127t-78 -177t-26 -206t26 -206t78 -177
t139.5 -127t200.5 -47q163 0 260 107.5t113 275.5z" />
    <glyph glyph-name="Egrave" unicode="&#xc8;" horiz-adv-x="1290" 
d="M156 0v1462h1052v-221h-796v-383h737v-209h-737v-428h811v-221h-1067zM340 1901h274l187 -293h-170z" />
    <glyph glyph-name="Eacute" unicode="&#xc9;" horiz-adv-x="1290" 
d="M156 0v1462h1052v-221h-796v-383h737v-209h-737v-428h811v-221h-1067zM492 1608l184 293h276l-290 -293h-170z" />
    <glyph glyph-name="Ecircumflex" unicode="&#xca;" horiz-adv-x="1290" 
d="M156 0v1462h1052v-221h-796v-383h737v-209h-737v-428h811v-221h-1067zM645 1792l-143 -184h-189l219 293h228l221 -293h-190z" />
    <glyph glyph-name="Edieresis" unicode="&#xcb;" horiz-adv-x="1290" 
d="M156 0v1462h1052v-221h-796v-383h737v-209h-737v-428h811v-221h-1067zM707 1851h233v-221h-233v221zM588 1630h-234v221h234v-221z" />
    <glyph glyph-name="Igrave" unicode="&#xcc;" horiz-adv-x="569" 
d="M156 0v1462h256v-1462h-256zM-20 1901h274l186 -293h-170z" />
    <glyph glyph-name="Iacute" unicode="&#xcd;" horiz-adv-x="569" 
d="M156 0v1462h256v-1462h-256zM131 1597l184 293h277l-291 -293h-170z" />
    <glyph glyph-name="Icircumflex" unicode="&#xce;" horiz-adv-x="569" 
d="M156 0v1462h256v-1462h-256zM285 1792l-144 -184h-188l219 293h227l222 -293h-191z" />
    <glyph glyph-name="Idieresis" unicode="&#xcf;" horiz-adv-x="569" 
d="M156 0v1462h256v-1462h-256zM346 1851h234v-221h-234v221zM227 1630h-233v221h233v-221z" />
    <glyph glyph-name="Eth" unicode="&#xd0;" horiz-adv-x="1478" 
d="M156 0v649h-138v209h138v604h606q164 0 290 -57t202.5 -158t114.5 -231t38 -285t-38 -285t-114.5 -231t-202.5 -158t-290 -57h-606zM412 1253v-395h399v-209h-399v-440h252q117 0 204.5 27t140.5 72t85.5 113.5t44.5 142t12 167.5t-12 167.5t-44.5 142t-85.5 113.5
t-140.5 72t-204.5 27h-252z" />
    <glyph glyph-name="Ntilde" unicode="&#xd1;" horiz-adv-x="1478" 
d="M145 0v1462h271l667 -1077h4v1077h244v-1462h-270l-666 1075h-6v-1075h-244zM987 1866h115q-17 -109 -68 -166q-57 -70 -160 -70q-52 0 -151 39q-109 37 -141 37q-34 0 -60 -27t-26 -57h-117q14 89 70.5 160t142.5 71q77 0 166 -38q9 -4 33 -13.5t35 -13.5t28 -8t31 -4
q78 0 102 90z" />
    <glyph glyph-name="Ograve" unicode="&#xd2;" horiz-adv-x="1556" 
d="M778 1497q160 0 293.5 -61t222 -165.5t137 -243.5t48.5 -296t-48.5 -296t-137 -243.5t-222 -165.5t-293.5 -61t-293.5 61t-221.5 165.5t-136.5 243.5t-48.5 296t48.5 296t136.5 243.5t221.5 165.5t293.5 61zM778 1288q-113 0 -200.5 -47t-139.5 -127t-78 -177t-26 -206
t26 -206t78 -177t139.5 -127t200.5 -47q91 0 166 31t126 84t86 124.5t51 151.5t16 166t-16 166t-51 151.5t-86 124.5t-126 84t-166 31zM473 1901h275l186 -293h-170z" />
    <glyph glyph-name="Oacute" unicode="&#xd3;" horiz-adv-x="1556" 
d="M778 1497q160 0 293.5 -61t222 -165.5t137 -243.5t48.5 -296t-48.5 -296t-137 -243.5t-222 -165.5t-293.5 -61t-293.5 61t-221.5 165.5t-136.5 243.5t-48.5 296t48.5 296t136.5 243.5t221.5 165.5t293.5 61zM778 1288q-113 0 -200.5 -47t-139.5 -127t-78 -177t-26 -206
t26 -206t78 -177t139.5 -127t200.5 -47q91 0 166 31t126 84t86 124.5t51 151.5t16 166t-16 166t-51 151.5t-86 124.5t-126 84t-166 31zM625 1577l184 293h276l-290 -293h-170z" />
    <glyph glyph-name="Ocircumflex" unicode="&#xd4;" horiz-adv-x="1556" 
d="M778 1497q160 0 293.5 -61t222 -165.5t137 -243.5t48.5 -296t-48.5 -296t-137 -243.5t-222 -165.5t-293.5 -61t-293.5 61t-221.5 165.5t-136.5 243.5t-48.5 296t48.5 296t136.5 243.5t221.5 165.5t293.5 61zM778 1288q-113 0 -200.5 -47t-139.5 -127t-78 -177t-26 -206
t26 -206t78 -177t139.5 -127t200.5 -47q91 0 166 31t126 84t86 124.5t51 151.5t16 166t-16 166t-51 151.5t-86 124.5t-126 84t-166 31zM778 1792l-143 -184h-189l220 293h227l221 -293h-190z" />
    <glyph glyph-name="Otilde" unicode="&#xd5;" horiz-adv-x="1556" 
d="M778 1497q160 0 293.5 -61t222 -165.5t137 -243.5t48.5 -296t-48.5 -296t-137 -243.5t-222 -165.5t-293.5 -61t-293.5 61t-221.5 165.5t-136.5 243.5t-48.5 296t48.5 296t136.5 243.5t221.5 165.5t293.5 61zM778 1288q-113 0 -200.5 -47t-139.5 -127t-78 -177t-26 -206
t26 -206t78 -177t139.5 -127t200.5 -47q91 0 166 31t126 84t86 124.5t51 151.5t16 166t-16 166t-51 151.5t-86 124.5t-126 84t-166 31zM1026 1866h115q-17 -109 -68 -166q-57 -70 -160 -70q-52 0 -151 39q-109 37 -141 37q-34 0 -60 -27t-26 -57h-117q14 89 70.5 160
t142.5 71q77 0 166 -38q9 -4 33 -13.5t35 -13.5t28 -8t31 -4q78 0 102 90z" />
    <glyph glyph-name="Odieresis" unicode="&#xd6;" horiz-adv-x="1556" 
d="M778 1497q160 0 293.5 -61t222 -165.5t137 -243.5t48.5 -296t-48.5 -296t-137 -243.5t-222 -165.5t-293.5 -61t-293.5 61t-221.5 165.5t-136.5 243.5t-48.5 296t48.5 296t136.5 243.5t221.5 165.5t293.5 61zM778 1288q-113 0 -200.5 -47t-139.5 -127t-78 -177t-26 -206
t26 -206t78 -177t139.5 -127t200.5 -47q91 0 166 31t126 84t86 124.5t51 151.5t16 166t-16 166t-51 151.5t-86 124.5t-126 84t-166 31zM840 1851h233v-221h-233v221zM721 1630h-234v221h234v-221z" />
    <glyph glyph-name="multiply" unicode="&#xd7;" horiz-adv-x="1228" 
d="M469 518l-356 356l176 115l323 -325l328 325l176 -115l-358 -356l358 -356l-176 -115l-328 328l-323 -328l-176 115z" />
    <glyph glyph-name="Oslash" unicode="&#xd8;" horiz-adv-x="1556" 
d="M408 401l673 758q-112 129 -303 129q-113 0 -200.5 -47t-139.5 -127t-78 -177t-26 -206q0 -194 74 -330zM1147 1061l-672 -758q119 -129 303 -129q91 0 166 31t126 84t86 124.5t51 151.5t16 166q0 192 -76 330zM1386 1503l89 -73l-162 -183q166 -215 166 -516
q0 -157 -48.5 -296t-137 -243.5t-222 -165.5t-293.5 -61q-271 0 -454 168l-156 -174l-86 74l162 184q-166 211 -166 514q0 157 48.5 296t136.5 243.5t221.5 165.5t293.5 61q271 0 455 -166z" />
    <glyph glyph-name="Ugrave" unicode="&#xd9;" horiz-adv-x="1478" 
d="M139 526v936h256v-852q0 -52 1.5 -86.5t8.5 -83t20.5 -81t39 -68t61 -56.5t90 -35t123.5 -14t123.5 14t90 35t61 56.5t39 68t20.5 81t8.5 83t1.5 86.5v852h256v-936q0 -274 -161 -417.5t-439 -143.5t-439 143.5t-161 417.5zM434 1901h275l186 -293h-170z" />
    <glyph glyph-name="Uacute" unicode="&#xda;" horiz-adv-x="1478" 
d="M139 526v936h256v-852q0 -52 1.5 -86.5t8.5 -83t20.5 -81t39 -68t61 -56.5t90 -35t123.5 -14t123.5 14t90 35t61 56.5t39 68t20.5 81t8.5 83t1.5 86.5v852h256v-936q0 -274 -161 -417.5t-439 -143.5t-439 143.5t-161 417.5zM586 1577l184 293h277l-291 -293h-170z" />
    <glyph glyph-name="Ucircumflex" unicode="&#xdb;" horiz-adv-x="1478" 
d="M139 526v936h256v-852q0 -52 1.5 -86.5t8.5 -83t20.5 -81t39 -68t61 -56.5t90 -35t123.5 -14t123.5 14t90 35t61 56.5t39 68t20.5 81t8.5 83t1.5 86.5v852h256v-936q0 -274 -161 -417.5t-439 -143.5t-439 143.5t-161 417.5zM739 1792l-143 -184h-188l219 293h227
l221 -293h-190z" />
    <glyph glyph-name="Udieresis" unicode="&#xdc;" horiz-adv-x="1478" 
d="M139 526v936h256v-852q0 -52 1.5 -86.5t8.5 -83t20.5 -81t39 -68t61 -56.5t90 -35t123.5 -14t123.5 14t90 35t61 56.5t39 68t20.5 81t8.5 83t1.5 86.5v852h256v-936q0 -274 -161 -417.5t-439 -143.5t-439 143.5t-161 417.5zM801 1851h233v-221h-233v221zM682 1630h-233
v221h233v-221z" />
    <glyph glyph-name="Yacute" unicode="&#xdd;" horiz-adv-x="1327" 
d="M537 0v573l-549 889h297l387 -655l381 655h286l-546 -889v-573h-256zM510 1577l184 293h277l-291 -293h-170z" />
    <glyph glyph-name="Thorn" unicode="&#xde;" horiz-adv-x="1366" 
d="M156 0v1462h256v-221h389q120 0 211.5 -30.5t144.5 -76t86 -109t44 -120t11 -117.5q0 -60 -11 -116.5t-44 -119t-86 -108t-144.5 -75.5t-211.5 -29h-389v-340h-256zM412 1032v-483h374q46 0 89 12.5t81.5 39t62 75.5t23.5 115q0 70 -19.5 119t-56 74.5t-79 36.5t-96.5 11
h-379z" />
    <glyph glyph-name="germandbls" unicode="&#xdf;" horiz-adv-x="1175" 
d="M129 0v1071q0 196 125 311t324 115q112 0 210 -42t162 -128t64 -199q0 -108 -53.5 -193t-155.5 -116v-4q83 -10 146.5 -62.5t95.5 -128t32 -159.5q0 -216 -128 -355t-341 -139q-56 0 -114 6v185q30 -6 79 -6q70 0 121 20.5t79 51t45 76t21.5 84.5t4.5 87q0 136 -113 201
q-76 51 -235 51v154q140 0 202 53q80 60 80 172q0 207 -207 207q-31 0 -58.5 -6.5t-56 -25t-49.5 -47t-34 -76.5t-13 -111v-1047h-233z" />
    <glyph glyph-name="agrave" unicode="&#xe0;" 
d="M776 356v174q-32 -21 -76.5 -32t-114 -18.5t-96.5 -12.5q-88 -14 -139 -53t-51 -123q0 -37 21.5 -64.5t55.5 -42t69 -21.5t69 -7q41 0 84.5 11t84.5 33.5t67 63t26 92.5zM1010 780v-544q0 -44 11.5 -62t43.5 -18t57 4v-162q-79 -27 -147 -27q-156 0 -180 129
q-65 -64 -165.5 -96.5t-201.5 -32.5q-98 0 -178.5 33.5t-132 105.5t-51.5 171q0 55 13 100t33 76.5t53 56.5t64.5 40t77 27t81.5 17.5t85 11.5q33 6 81 12.5t77 10t63 12.5t52.5 22t31.5 36.5t13 56.5q0 43 -20.5 73t-55.5 44.5t-69.5 20t-74.5 5.5q-102 0 -164 -42
t-69 -126h-234q6 98 48.5 169t112 109.5t149 56t172.5 17.5q81 0 154 -17t135 -52t98.5 -96.5t36.5 -141.5zM264 1497h275l186 -293h-170z" />
    <glyph glyph-name="aacute" unicode="&#xe1;" 
d="M776 356v174q-32 -21 -76.5 -32t-114 -18.5t-96.5 -12.5q-88 -14 -139 -53t-51 -123q0 -37 21.5 -64.5t55.5 -42t69 -21.5t69 -7q41 0 84.5 11t84.5 33.5t67 63t26 92.5zM1010 780v-544q0 -44 11.5 -62t43.5 -18t57 4v-162q-79 -27 -147 -27q-156 0 -180 129
q-65 -64 -165.5 -96.5t-201.5 -32.5q-98 0 -178.5 33.5t-132 105.5t-51.5 171q0 55 13 100t33 76.5t53 56.5t64.5 40t77 27t81.5 17.5t85 11.5q33 6 81 12.5t77 10t63 12.5t52.5 22t31.5 36.5t13 56.5q0 43 -20.5 73t-55.5 44.5t-69.5 20t-74.5 5.5q-102 0 -164 -42
t-69 -126h-234q6 98 48.5 169t112 109.5t149 56t172.5 17.5q81 0 154 -17t135 -52t98.5 -96.5t36.5 -141.5zM416 1204l184 293h277l-291 -293h-170z" />
    <glyph glyph-name="acircumflex" unicode="&#xe2;" 
d="M776 356v174q-32 -21 -76.5 -32t-114 -18.5t-96.5 -12.5q-88 -14 -139 -53t-51 -123q0 -37 21.5 -64.5t55.5 -42t69 -21.5t69 -7q41 0 84.5 11t84.5 33.5t67 63t26 92.5zM1010 780v-544q0 -44 11.5 -62t43.5 -18t57 4v-162q-79 -27 -147 -27q-156 0 -180 129
q-65 -64 -165.5 -96.5t-201.5 -32.5q-98 0 -178.5 33.5t-132 105.5t-51.5 171q0 55 13 100t33 76.5t53 56.5t64.5 40t77 27t81.5 17.5t85 11.5q33 6 81 12.5t77 10t63 12.5t52.5 22t31.5 36.5t13 56.5q0 43 -20.5 73t-55.5 44.5t-69.5 20t-74.5 5.5q-102 0 -164 -42
t-69 -126h-234q6 98 48.5 169t112 109.5t149 56t172.5 17.5q81 0 154 -17t135 -52t98.5 -96.5t36.5 -141.5zM569 1389l-143 -185h-188l219 293h227l221 -293h-190z" />
    <glyph glyph-name="atilde" unicode="&#xe3;" 
d="M776 356v174q-32 -21 -76.5 -32t-114 -18.5t-96.5 -12.5q-88 -14 -139 -53t-51 -123q0 -37 21.5 -64.5t55.5 -42t69 -21.5t69 -7q41 0 84.5 11t84.5 33.5t67 63t26 92.5zM1010 780v-544q0 -44 11.5 -62t43.5 -18t57 4v-162q-79 -27 -147 -27q-156 0 -180 129
q-65 -64 -165.5 -96.5t-201.5 -32.5q-98 0 -178.5 33.5t-132 105.5t-51.5 171q0 55 13 100t33 76.5t53 56.5t64.5 40t77 27t81.5 17.5t85 11.5q33 6 81 12.5t77 10t63 12.5t52.5 22t31.5 36.5t13 56.5q0 43 -20.5 73t-55.5 44.5t-69.5 20t-74.5 5.5q-102 0 -164 -42
t-69 -126h-234q6 98 48.5 169t112 109.5t149 56t172.5 17.5q81 0 154 -17t135 -52t98.5 -96.5t36.5 -141.5zM817 1462h115q-17 -109 -68 -166q-56 -69 -159 -69q-53 0 -152 39q-109 37 -141 37q-34 0 -60 -27t-26 -57h-117q14 89 70.5 160t142.5 71q74 0 166 -39
q9 -4 33 -13.5t35 -13.5t28 -8t31 -4q78 0 102 90z" />
    <glyph glyph-name="adieresis" unicode="&#xe4;" 
d="M776 356v174q-32 -21 -76.5 -32t-114 -18.5t-96.5 -12.5q-88 -14 -139 -53t-51 -123q0 -37 21.5 -64.5t55.5 -42t69 -21.5t69 -7q41 0 84.5 11t84.5 33.5t67 63t26 92.5zM1010 780v-544q0 -44 11.5 -62t43.5 -18t57 4v-162q-79 -27 -147 -27q-156 0 -180 129
q-65 -64 -165.5 -96.5t-201.5 -32.5q-98 0 -178.5 33.5t-132 105.5t-51.5 171q0 55 13 100t33 76.5t53 56.5t64.5 40t77 27t81.5 17.5t85 11.5q33 6 81 12.5t77 10t63 12.5t52.5 22t31.5 36.5t13 56.5q0 43 -20.5 73t-55.5 44.5t-69.5 20t-74.5 5.5q-102 0 -164 -42
t-69 -126h-234q6 98 48.5 169t112 109.5t149 56t172.5 17.5q81 0 154 -17t135 -52t98.5 -96.5t36.5 -141.5zM631 1448h233v-221h-233v221zM512 1227h-233v221h233v-221z" />
    <glyph glyph-name="aring" unicode="&#xe5;" 
d="M776 356v174q-32 -21 -76.5 -32t-114 -18.5t-96.5 -12.5q-88 -14 -139 -53t-51 -123q0 -37 21.5 -64.5t55.5 -42t69 -21.5t69 -7q41 0 84.5 11t84.5 33.5t67 63t26 92.5zM1010 780v-544q0 -44 11.5 -62t43.5 -18t57 4v-162q-79 -27 -147 -27q-156 0 -180 129
q-65 -64 -165.5 -96.5t-201.5 -32.5q-98 0 -178.5 33.5t-132 105.5t-51.5 171q0 55 13 100t33 76.5t53 56.5t64.5 40t77 27t81.5 17.5t85 11.5q33 6 81 12.5t77 10t63 12.5t52.5 22t31.5 36.5t13 56.5q0 43 -20.5 73t-55.5 44.5t-69.5 20t-74.5 5.5q-102 0 -164 -42
t-69 -126h-234q6 98 48.5 169t112 109.5t149 56t172.5 17.5q81 0 154 -17t135 -52t98.5 -96.5t36.5 -141.5zM571 1124q-85 0 -148 63t-63 148q0 86 63 148.5t148 62.5q86 0 148.5 -62.5t62.5 -148.5q0 -85 -62.5 -148t-148.5 -63zM446 1335q0 -49 38 -87t87 -38
q51 0 88 37.5t37 87.5q0 51 -37 88t-88 37q-50 0 -87.5 -37t-37.5 -88z" />
    <glyph glyph-name="ae" unicode="&#xe6;" horiz-adv-x="1820" 
d="M997 623h535q2 128 -69.5 204t-198.5 76q-119 0 -189 -79.5t-78 -200.5zM776 369v157q-23 -21 -64.5 -31t-115 -16.5t-104.5 -11.5q-90 -14 -141.5 -53t-51.5 -123q0 -38 19 -65.5t51.5 -42t67.5 -21t75 -6.5q105 0 184.5 57.5t79.5 155.5zM1524 334h233
q-44 -168 -173.5 -265.5t-305.5 -97.5q-277 0 -389 195q-66 -98 -182.5 -146.5t-257.5 -48.5q-167 0 -275 80.5t-108 229.5q0 55 13 100t33 76.5t53 56.5t64.5 40t77 27t81.5 17.5t85 11.5q33 6 80 12.5t74.5 10t60 12.5t49.5 22t29 36.5t12 56.5q0 143 -207 143
q-102 0 -164 -42t-69 -126h-234q6 98 48.5 169t111.5 109.5t147 56t169 17.5q77 0 135.5 -9t121 -42.5t101.5 -91.5q56 73 145 108t191 35q132 0 231.5 -47t158 -130.5t84.5 -195t17 -245.5h-768q-1 -62 15.5 -117.5t49.5 -99.5t87.5 -70t124.5 -26q92 0 156 46.5t94 131.5z
" />
    <glyph glyph-name="ccedilla" unicode="&#xe7;" 
d="M838 397h233q-31 -195 -144.5 -304t-297.5 -118l-72 -94v-4q16 6 68 6q68 0 121 -39.5t53 -111.5q0 -50 -21.5 -87t-58.5 -58t-79 -30.5t-89 -9.5q-53 0 -114 11t-97 32l37 82q5 -2 25 -8.5t28.5 -9t24.5 -7t29 -6t26 -1.5q125 0 125 84q0 36 -28.5 56.5t-65.5 20.5
q-44 0 -80 -20l-45 39l116 155q-218 17 -339 166.5t-121 376.5q0 121 33 223.5t97 180t164.5 121.5t227.5 44q195 0 327.5 -97.5t149.5 -284.5h-233q-13 95 -78 146.5t-164 51.5q-40 0 -77 -8.5t-77.5 -34.5t-69.5 -67t-48 -112t-19 -163q0 -69 16 -131.5t48 -115t88 -84
t129 -31.5q101 0 168 63.5t84 177.5z" />
    <glyph glyph-name="egrave" unicode="&#xe8;" 
d="M1083 469h-778q0 -86 29.5 -155t95.5 -113.5t160 -44.5q196 0 258 176h221q-37 -169 -169 -265t-310 -96q-244 0 -381 153.5t-137 403.5q0 113 36 214.5t101 178t162.5 121.5t212.5 45q122 0 224 -52t166 -138t94 -198t15 -230zM305 623h545q-6 116 -79 198t-187 82
q-120 0 -197 -80t-82 -200zM264 1497h275l186 -293h-170z" />
    <glyph glyph-name="eacute" unicode="&#xe9;" 
d="M1083 469h-778q0 -86 29.5 -155t95.5 -113.5t160 -44.5q196 0 258 176h221q-37 -169 -169 -265t-310 -96q-244 0 -381 153.5t-137 403.5q0 113 36 214.5t101 178t162.5 121.5t212.5 45q122 0 224 -52t166 -138t94 -198t15 -230zM305 623h545q-6 116 -79 198t-187 82
q-120 0 -197 -80t-82 -200zM416 1204l184 293h277l-291 -293h-170z" />
    <glyph glyph-name="ecircumflex" unicode="&#xea;" 
d="M1083 469h-778q0 -86 29.5 -155t95.5 -113.5t160 -44.5q196 0 258 176h221q-37 -169 -169 -265t-310 -96q-244 0 -381 153.5t-137 403.5q0 113 36 214.5t101 178t162.5 121.5t212.5 45q122 0 224 -52t166 -138t94 -198t15 -230zM305 623h545q-6 116 -79 198t-187 82
q-120 0 -197 -80t-82 -200zM569 1389l-143 -185h-188l219 293h227l221 -293h-190z" />
    <glyph glyph-name="edieresis" unicode="&#xeb;" 
d="M1083 469h-778q0 -86 29.5 -155t95.5 -113.5t160 -44.5q196 0 258 176h221q-37 -169 -169 -265t-310 -96q-244 0 -381 153.5t-137 403.5q0 113 36 214.5t101 178t162.5 121.5t212.5 45q122 0 224 -52t166 -138t94 -198t15 -230zM305 623h545q-6 116 -79 198t-187 82
q-120 0 -197 -80t-82 -200zM631 1448h233v-221h-233v221zM512 1227h-233v221h233v-221z" />
    <glyph glyph-name="igrave" unicode="&#xec;" horiz-adv-x="493" 
d="M362 0h-233v1059h233v-1059zM-59 1497h274l186 -293h-170z" />
    <glyph glyph-name="iacute" unicode="&#xed;" horiz-adv-x="493" 
d="M362 0h-233v1059h233v-1059zM92 1204l184 293h277l-291 -293h-170z" />
    <glyph glyph-name="icircumflex" unicode="&#xee;" horiz-adv-x="493" 
d="M362 0h-233v1059h233v-1059zM246 1389l-144 -185h-188l219 293h227l222 -293h-191z" />
    <glyph glyph-name="idieresis" unicode="&#xef;" horiz-adv-x="493" 
d="M362 0h-233v1059h233v-1059zM307 1448h234v-221h-234v221zM188 1227h-233v221h233v-221z" />
    <glyph glyph-name="eth" unicode="&#xf0;" horiz-adv-x="1214" 
d="M612 852q-79 0 -137 -27.5t-91.5 -77.5t-49 -110.5t-15.5 -134.5q0 -97 27.5 -173t90.5 -124.5t153 -48.5q135 0 219 103.5t84 242.5q0 68 -16.5 129t-49 111.5t-88 80t-127.5 29.5zM397 1108l-102 100l197 95q-115 51 -175 69l156 125q114 -37 213 -102l215 102
l100 -100l-192 -92q153 -126 235 -300t82 -372q0 -111 -18.5 -208t-60.5 -181.5t-105 -144t-156.5 -94t-210.5 -34.5q-229 0 -359 150.5t-130 394.5q0 101 32 194.5t89.5 166t145 116t190.5 43.5q168 0 293 -90h4q-57 130 -222 268z" />
    <glyph glyph-name="ntilde" unicode="&#xf1;" horiz-adv-x="1175" 
d="M123 0v1059h221v-156l4 -4q53 88 139.5 138t190.5 50q175 0 275 -92.5t100 -267.5v-727h-234v666q-3 124 -53 180.5t-154 56.5q-115 0 -185.5 -79.5t-70.5 -198.5v-625h-233zM836 1462h114q-17 -110 -67 -166q-56 -69 -160 -69q-53 0 -152 39q-109 37 -141 37
q-34 0 -60 -27t-26 -57h-117q14 89 70.5 160t142.5 71q74 0 166 -39q9 -4 33 -13.5t35 -13.5t28 -8t31 -4q79 0 103 90z" />
    <glyph glyph-name="ograve" unicode="&#xf2;" horiz-adv-x="1214" 
d="M608 156q61 0 111.5 21.5t85 57.5t58.5 84t35 101.5t11 109.5q0 71 -18 135.5t-53.5 118.5t-95 86.5t-134.5 32.5t-134.5 -32.5t-95 -86.5t-53.5 -118.5t-18 -135.5q0 -56 11 -109.5t35 -101.5t58.5 -84t85 -57.5t111.5 -21.5zM608 -29q-250 0 -392 154.5t-142 404.5
q0 163 62 288t184 197t288 72q250 0 392.5 -154.5t142.5 -402.5q0 -250 -142.5 -404.5t-392.5 -154.5zM301 1497h274l187 -293h-170z" />
    <glyph glyph-name="oacute" unicode="&#xf3;" horiz-adv-x="1214" 
d="M608 156q61 0 111.5 21.5t85 57.5t58.5 84t35 101.5t11 109.5q0 71 -18 135.5t-53.5 118.5t-95 86.5t-134.5 32.5t-134.5 -32.5t-95 -86.5t-53.5 -118.5t-18 -135.5q0 -56 11 -109.5t35 -101.5t58.5 -84t85 -57.5t111.5 -21.5zM608 -29q-250 0 -392 154.5t-142 404.5
q0 163 62 288t184 197t288 72q250 0 392.5 -154.5t142.5 -402.5q0 -250 -142.5 -404.5t-392.5 -154.5zM453 1204l184 293h276l-290 -293h-170z" />
    <glyph glyph-name="ocircumflex" unicode="&#xf4;" horiz-adv-x="1214" 
d="M608 156q61 0 111.5 21.5t85 57.5t58.5 84t35 101.5t11 109.5q0 71 -18 135.5t-53.5 118.5t-95 86.5t-134.5 32.5t-134.5 -32.5t-95 -86.5t-53.5 -118.5t-18 -135.5q0 -56 11 -109.5t35 -101.5t58.5 -84t85 -57.5t111.5 -21.5zM608 -29q-250 0 -392 154.5t-142 404.5
q0 163 62 288t184 197t288 72q250 0 392.5 -154.5t142.5 -402.5q0 -250 -142.5 -404.5t-392.5 -154.5zM606 1389l-143 -185h-189l220 293h227l221 -293h-190z" />
    <glyph glyph-name="otilde" unicode="&#xf5;" horiz-adv-x="1214" 
d="M608 156q61 0 111.5 21.5t85 57.5t58.5 84t35 101.5t11 109.5q0 71 -18 135.5t-53.5 118.5t-95 86.5t-134.5 32.5t-134.5 -32.5t-95 -86.5t-53.5 -118.5t-18 -135.5q0 -56 11 -109.5t35 -101.5t58.5 -84t85 -57.5t111.5 -21.5zM608 -29q-250 0 -392 154.5t-142 404.5
q0 163 62 288t184 197t288 72q250 0 392.5 -154.5t142.5 -402.5q0 -250 -142.5 -404.5t-392.5 -154.5zM854 1462h115q-17 -109 -68 -166q-56 -69 -160 -69q-52 0 -151 39q-109 37 -141 37q-34 0 -60.5 -27t-26.5 -57h-116q14 89 70.5 160t142.5 71q74 0 166 -39
q9 -4 33 -13.5t35 -13.5t28 -8t31 -4q78 0 102 90z" />
    <glyph glyph-name="odieresis" unicode="&#xf6;" horiz-adv-x="1214" 
d="M608 156q61 0 111.5 21.5t85 57.5t58.5 84t35 101.5t11 109.5q0 71 -18 135.5t-53.5 118.5t-95 86.5t-134.5 32.5t-134.5 -32.5t-95 -86.5t-53.5 -118.5t-18 -135.5q0 -56 11 -109.5t35 -101.5t58.5 -84t85 -57.5t111.5 -21.5zM608 -29q-250 0 -392 154.5t-142 404.5
q0 163 62 288t184 197t288 72q250 0 392.5 -154.5t142.5 -402.5q0 -250 -142.5 -404.5t-392.5 -154.5zM668 1448h233v-221h-233v221zM549 1227h-234v221h234v-221z" />
    <glyph glyph-name="divide" unicode="&#xf7;" horiz-adv-x="1228" 
d="M1130 414h-1032v209h1032v-209zM616 793q-60 0 -104.5 43.5t-44.5 103.5q0 61 44 104t103 43q60 0 104 -43.5t44 -103.5q0 -56 -44 -101.5t-102 -45.5zM616 -51q-60 0 -104.5 43.5t-44.5 103.5q0 61 44 104.5t103 43.5q60 0 104 -44t44 -104q0 -56 -44 -101.5t-102 -45.5
z" />
    <glyph glyph-name="oslash" unicode="&#xf8;" horiz-adv-x="1214" 
d="M862 741l-456 -499q80 -86 202 -86q61 0 111.5 21.5t85 57.5t58.5 84t35 101.5t11 109.5q0 121 -47 211zM131 -57l-65 57l133 147q-125 149 -125 383q0 163 62 288t184 197t288 72q214 0 348 -112l129 141l66 -57l-133 -146q125 -152 125 -383q0 -250 -142.5 -404.5
t-392.5 -154.5q-209 0 -346 115zM354 317l457 500q-80 86 -203 86q-75 0 -134.5 -32.5t-95 -86.5t-53.5 -118.5t-18 -135.5q0 -123 47 -213z" />
    <glyph glyph-name="ugrave" unicode="&#xf9;" horiz-adv-x="1175" 
d="M1053 1059v-1059h-230v147h-4q-42 -78 -127 -127t-174 -49q-204 0 -299.5 103t-95.5 313v672h233v-649q0 -135 51.5 -194.5t151.5 -59.5q260 0 260 288v615h234zM283 1497h274l186 -293h-170z" />
    <glyph glyph-name="uacute" unicode="&#xfa;" horiz-adv-x="1175" 
d="M1053 1059v-1059h-230v147h-4q-42 -78 -127 -127t-174 -49q-204 0 -299.5 103t-95.5 313v672h233v-649q0 -135 51.5 -194.5t151.5 -59.5q260 0 260 288v615h234zM434 1204l184 293h277l-291 -293h-170z" />
    <glyph glyph-name="ucircumflex" unicode="&#xfb;" horiz-adv-x="1175" 
d="M1053 1059v-1059h-230v147h-4q-42 -78 -127 -127t-174 -49q-204 0 -299.5 103t-95.5 313v672h233v-649q0 -135 51.5 -194.5t151.5 -59.5q260 0 260 288v615h234zM588 1389l-144 -185h-188l219 293h227l222 -293h-191z" />
    <glyph glyph-name="udieresis" unicode="&#xfc;" horiz-adv-x="1175" 
d="M1053 1059v-1059h-230v147h-4q-42 -78 -127 -127t-174 -49q-204 0 -299.5 103t-95.5 313v672h233v-649q0 -135 51.5 -194.5t151.5 -59.5q260 0 260 288v615h234zM649 1448h234v-221h-234v221zM530 1227h-233v221h233v-221z" />
    <glyph glyph-name="yacute" unicode="&#xfd;" horiz-adv-x="1062" 
d="M408 4l-402 1055h256l277 -791h4l268 791h244l-412 -1116q-59 -147 -84 -193q-69 -122 -179 -155q-50 -15 -112 -15q-82 0 -162 12v197q86 -14 111 -14q75 0 107 34t57 113zM377 1204l184 293h277l-291 -293h-170z" />
    <glyph glyph-name="thorn" unicode="&#xfe;" horiz-adv-x="1251" 
d="M129 -391v1853h233v-540h5q46 75 134.5 120t180.5 45q98 0 179.5 -29t139.5 -80.5t98.5 -122t59.5 -154t19 -177.5q0 -110 -28 -207.5t-82.5 -175.5t-144 -124t-202.5 -46q-109 0 -205.5 41t-148.5 125h-5v-528h-233zM944 528q0 99 -32 182.5t-100 138t-161 54.5
q-144 0 -220.5 -101t-76.5 -274q0 -164 79.5 -268t217.5 -104q62 0 112 21t83.5 56.5t55.5 84t32 101t10 109.5z" />
    <glyph glyph-name="ydieresis" unicode="&#xff;" horiz-adv-x="1062" 
d="M408 4l-402 1055h256l277 -791h4l268 791h244l-412 -1116q-59 -147 -84 -193q-69 -122 -179 -155q-50 -15 -112 -15q-82 0 -162 12v197q86 -14 111 -14q75 0 107 34t57 113zM592 1448h233v-221h-233v221zM473 1227h-233v221h233v-221z" />
    <glyph glyph-name="dotlessi" unicode="&#x131;" horiz-adv-x="493" 
d="M362 0h-233v1059h233v-1059z" />
    <glyph glyph-name="Lslash" unicode="&#x141;" horiz-adv-x="1175" 
d="M156 649v813h256v-626l409 290v-190l-409 -291v-424h743v-221h-999v465l-156 -111v185z" />
    <glyph glyph-name="lslash" unicode="&#x142;" horiz-adv-x="493" 
d="M129 0v653l-139 -108v145l139 109v663h233v-481l140 111v-148l-140 -110v-834h-233z" />
    <glyph glyph-name="OE" unicode="&#x152;" horiz-adv-x="2238" 
d="M1130 449v544q0 58 -22 110.5t-64 94t-110 66t-154 24.5q-111 0 -198 -48.5t-138.5 -129.5t-77.5 -178t-26 -203t26 -202t77.5 -176.5t138.5 -128.5t198 -48q80 0 148 26t111 66.5t67 88.5t24 94zM1374 1241v-383h703v-209h-703v-428h780v-221h-1013v131
q-71 -84 -171 -125t-214 -41q-127 0 -236 40t-188.5 110.5t-135.5 166.5t-84 208.5t-28 234.5q0 155 46.5 294.5t132.5 246t217.5 169t291.5 62.5q117 0 207 -34.5t162 -116.5v116h999v-221h-766z" />
    <glyph glyph-name="oe" unicode="&#x153;" horiz-adv-x="1857" 
d="M1808 469h-774q2 -138 72 -225.5t205 -87.5q93 0 164.5 46.5t87.5 133.5h233q-42 -176 -169.5 -270.5t-311.5 -94.5q-279 0 -379 195q-101 -195 -377 -195q-119 0 -213.5 44.5t-153.5 122.5t-89.5 178t-30.5 216q0 114 34 214.5t97 176.5t160 120t215 44q270 0 370 -178
q57 91 156 134.5t215 43.5q108 0 192.5 -33t139.5 -89t91 -136t51 -168.5t15 -191.5zM1300 903q-115 0 -188 -81.5t-78 -198.5h541q-8 132 -76.5 206t-198.5 74zM575 903q-71 0 -125.5 -32.5t-84.5 -87t-45 -117t-15 -129.5q0 -59 7 -110.5t26 -102.5t48.5 -87t78 -58.5
t110.5 -22.5t110.5 22.5t78 58.5t48.5 87t26.5 102.5t7.5 110.5q0 67 -15 129.5t-45.5 117t-85 87t-125.5 32.5z" />
    <glyph glyph-name="Scaron" unicode="&#x160;" horiz-adv-x="1327" 
d="M68 487h256q0 -82 28.5 -143.5t80 -98t117 -54t144.5 -17.5q157 0 233.5 64t76.5 157q0 133 -121 180q-46 17 -105.5 34t-160.5 42.5t-171 44.5q-323 88 -323 371q0 106 46 190t122.5 135.5t170 78t195.5 26.5q116 0 217 -30.5t178.5 -88t122 -147.5t44.5 -201h-256
q-9 135 -92.5 196.5t-223.5 61.5q-48 0 -92.5 -9.5t-85.5 -30t-65.5 -59.5t-24.5 -91q0 -140 174 -189q376 -98 422 -112q137 -41 211 -146t74 -227q0 -118 -49.5 -209t-133.5 -144t-185 -79.5t-214 -26.5q-128 0 -236 31.5t-191.5 93.5t-132 163.5t-50.5 233.5zM999 1901
l-221 -293h-227l-219 293h188l144 -183l145 183h190z" />
    <glyph glyph-name="scaron" unicode="&#x161;" horiz-adv-x="1062" 
d="M66 340h233q9 -96 74 -140t166 -44q40 0 76 5t75.5 18.5t62.5 43t21 72.5q-1 26 -11 46.5t-31.5 36t-42 26t-57 20.5t-61.5 16t-71.5 15.5t-71.5 15.5q-59 13 -102.5 26.5t-91 38t-77.5 56t-49.5 81t-19.5 111.5q0 67 27.5 120t72 86.5t104 56t118.5 31.5t120 9
q84 0 157 -18t134.5 -55.5t101 -101.5t50.5 -150h-244q-25 141 -215 141q-30 0 -59.5 -4.5t-61.5 -15t-51.5 -33.5t-19.5 -55q0 -24 9 -43.5t30 -34t41 -25t57.5 -20.5t62.5 -16t72 -15.5t72 -15.5q59 -13 102 -27t91 -39t78.5 -56t50.5 -79.5t20 -108.5q0 -90 -42.5 -159
t-113 -108t-150.5 -58t-167 -19q-101 0 -185 23t-147.5 67.5t-99.5 115.5t-37 163zM866 1497l-221 -293h-227l-219 293h188l143 -182l146 182h190z" />
    <glyph glyph-name="Ydieresis" unicode="&#x178;" horiz-adv-x="1327" 
d="M537 0v573l-549 889h297l387 -655l381 655h286l-546 -889v-573h-256zM725 1851h233v-221h-233v221zM606 1630h-233v221h233v-221z" />
    <glyph glyph-name="Zcaron" unicode="&#x17d;" horiz-adv-x="1290" 
d="M113 1241v221h1112v-194l-852 -1047h872v-221h-1198v209l852 1032h-786zM981 1901l-221 -293h-228l-219 293h189l143 -183l146 183h190z" />
    <glyph glyph-name="zcaron" unicode="&#x17e;" horiz-adv-x="1024" 
d="M86 874v185h860v-164l-606 -711h637v-184h-932v164l586 710h-545zM848 1497l-221 -293h-228l-219 293h189l143 -182l145 182h191z" />
    <glyph glyph-name="florin" unicode="&#x192;" 
d="M238 723l30 174h189l65 344q63 256 361 256q67 0 149 -10l-35 -184q-48 10 -84 10q-83 0 -118.5 -33.5t-51.5 -116.5l-51 -266h209l-31 -174h-208l-150 -780q-24 -121 -123 -206t-227 -85q-70 0 -162 10l31 184q55 -10 98 -10q60 0 94 25t47 90l154 772h-186z" />
    <glyph glyph-name="circumflex" unicode="&#x2c6;" horiz-adv-x="493" 
d="M246 1389l-144 -185h-188l219 293h227l222 -293h-191z" />
    <glyph glyph-name="caron" unicode="&#x2c7;" horiz-adv-x="493" 
d="M582 1497l-222 -293h-227l-219 293h188l144 -182l145 182h191z" />
    <glyph glyph-name="uni02C9" unicode="&#x2c9;" horiz-adv-x="493" 
d="M543 1268h-590v133h590v-133z" />
    <glyph glyph-name="breve" unicode="&#x2d8;" horiz-adv-x="493" 
d="M-84 1497h119q32 -156 219 -156q80 0 135 40t72 116h117q-15 -142 -105 -215.5t-235 -73.5q-142 0 -226 74.5t-96 214.5z" />
    <glyph glyph-name="dotaccent" unicode="&#x2d9;" horiz-adv-x="493" 
d="M365 1227h-234v221h234v-221z" />
    <glyph glyph-name="ring" unicode="&#x2da;" horiz-adv-x="493" 
d="M248 1124q-85 0 -148 63t-63 148q0 86 63 148.5t148 62.5q86 0 148.5 -62.5t62.5 -148.5q0 -85 -62.5 -148t-148.5 -63zM123 1335q0 -49 37.5 -87t87.5 -38q51 0 88 37.5t37 87.5q0 51 -37 88t-88 37q-50 0 -87.5 -37t-37.5 -88z" />
    <glyph glyph-name="ogonek" unicode="&#x2db;" horiz-adv-x="493" 
d="M332 6h110q-109 -85 -150.5 -144t-41.5 -116q0 -40 24 -65t56 -25q59 0 108 68l82 -17q-23 -82 -83 -117.5t-132 -35.5q-17 0 -37 2.5t-52 13t-56.5 29t-43 54.5t-18.5 85q0 128 234 268z" />
    <glyph glyph-name="tilde" unicode="&#x2dc;" horiz-adv-x="493" 
d="M494 1462h114q-17 -110 -67 -166q-56 -69 -160 -69q-53 0 -152 39q-109 37 -141 37q-34 0 -60 -27t-26 -57h-117q14 89 70.5 160t142.5 71q74 0 166 -39q9 -4 33 -13.5t35 -13.5t28 -8t31 -4q79 0 103 90z" />
    <glyph glyph-name="hungarumlaut" unicode="&#x2dd;" horiz-adv-x="493" 
d="M-72 1204l185 293h278l-295 -293h-168zM336 1204l184 293h279l-295 -293h-168z" />
    <glyph glyph-name="uni03A9" unicode="&#x3a9;" horiz-adv-x="1458" 
d="M379 168v6q-114 105 -188 261.5t-74 348.5q0 142 46.5 266.5t127 214t195.5 141.5t247 52q112 0 209.5 -37t169 -101t123 -148t77 -180t25.5 -195q0 -198 -77 -360t-189 -263v-6h295v-168h-514v125q118 77 197 238.5t79 390.5q0 80 -16 156t-48.5 144.5t-78.5 120
t-111 81.5t-141 30q-121 0 -214.5 -71.5t-143 -194.5t-49.5 -275q0 -215 81 -382t197 -238v-125h-516v168h291z" />
    <glyph glyph-name="uni03BC" unicode="&#x3bc;" horiz-adv-x="1175" 
d="M1053 1059v-1059h-230v147h-4q-41 -77 -123 -126.5t-155 -49.5q-122 0 -185 74v-436h-233v1450h233v-649q0 -135 51.5 -194.5t151.5 -59.5q260 0 260 288v615h234z" />
    <glyph glyph-name="pi" unicode="&#x3c0;" horiz-adv-x="1198" 
d="M1147 897h-156v-594q0 -181 29 -303h-201q-35 68 -35 291v606h-325q-8 -206 -48.5 -480t-93.5 -417h-200q53 167 92.5 433.5t44.5 463.5q-142 0 -213 -23l-27 138q87 63 314 63h835z" />
    <glyph glyph-name="uni2010" unicode="&#x2010;" horiz-adv-x="796" 
d="M100 446v222h596v-222h-596z" />
    <glyph glyph-name="endash" unicode="&#x2013;" horiz-adv-x="1024" 
d="M0 446v222h1024v-222h-1024z" />
    <glyph glyph-name="emdash" unicode="&#x2014;" horiz-adv-x="2048" 
d="M266 446v222h1516v-222h-1516z" />
    <glyph glyph-name="quoteleft" unicode="&#x2018;" horiz-adv-x="569" 
d="M414 1462v-119q-61 -22 -93 -69t-32 -113h125v-276h-256v276q0 112 72 190t184 111z" />
    <glyph glyph-name="quoteright" unicode="&#x2019;" horiz-adv-x="569" 
d="M158 885v119q125 15 125 182h-125v276h256v-276q0 -120 -69.5 -203t-186.5 -98z" />
    <glyph glyph-name="quotesinglbase" unicode="&#x201a;" horiz-adv-x="569" 
d="M158 -301v119q125 43 125 182h-125v276h256v-276q0 -112 -72 -190t-184 -111z" />
    <glyph glyph-name="quotedblleft" unicode="&#x201c;" horiz-adv-x="909" 
d="M379 1462v-119q-61 -22 -93 -69t-32 -113h125v-276h-256v276q0 112 72 190t184 111zM786 1462v-119q-124 -44 -124 -182h124v-276h-256v276q0 112 72 190t184 111z" />
    <glyph glyph-name="quotedblright" unicode="&#x201d;" horiz-adv-x="909" 
d="M123 885v119q125 43 125 182h-125v276h256v-276q0 -112 -72 -190t-184 -111zM530 885v119q125 43 125 182h-125v276h256v-276q0 -112 -72 -190t-184 -111z" />
    <glyph glyph-name="quotedblbase" unicode="&#x201e;" horiz-adv-x="909" 
d="M123 -301v119q125 43 125 182h-125v276h256v-276q0 -112 -72 -190t-184 -111zM530 -301v119q125 43 125 182h-125v276h256v-276q0 -112 -72 -190t-184 -111z" />
    <glyph glyph-name="dagger" unicode="&#x2020;" 
d="M453 -328v1192h-392v195h392v403h233v-403h391v-195h-391v-1192h-233z" />
    <glyph glyph-name="daggerdbl" unicode="&#x2021;" 
d="M453 -328v404h-392v194h392v594h-392v195h392v403h233v-403h391v-195h-391v-594h391v-194h-391v-404h-233z" />
    <glyph glyph-name="bullet" unicode="&#x2022;" horiz-adv-x="1024" 
d="M147 731q0 152 106.5 258.5t258.5 106.5t259.5 -106.5t107.5 -258.5t-107.5 -259t-259.5 -107t-258.5 107t-106.5 259z" />
    <glyph glyph-name="ellipsis" unicode="&#x2026;" horiz-adv-x="2048" 
d="M199 0v276h284v-276h-284zM881 0v276h284v-276h-284zM1563 0v276h284v-276h-284z" />
    <glyph glyph-name="perthousand" unicode="&#x2030;" horiz-adv-x="2351" 
d="M473 1462q151 0 228 -103.5t77 -262.5q0 -50 -9.5 -96t-32 -90.5t-56.5 -77t-87.5 -52.5t-119.5 -20t-119.5 20t-87.5 52.5t-56.5 77t-32 90.5t-9.5 96q0 159 77 262.5t228 103.5zM473 1339q-131 0 -131 -249q0 -207 131 -207t131 207q0 249 -131 249zM1180 -29
q-146 0 -226 97t-80 247q0 101 31 180t102 129t173 50q77 0 137 -28.5t96 -78.5t54 -113.5t18 -138.5q0 -150 -79.5 -247t-225.5 -97zM1180 94q131 0 131 215q0 242 -131 242t-131 -242q0 -215 131 -215zM1878 -29q-82 0 -143.5 31t-95.5 82.5t-50 109.5t-16 121
q0 102 31 181t101 128.5t173 49.5t173 -49.5t101 -128.5t31 -181q0 -63 -16 -121t-50 -109.5t-95.5 -82.5t-143.5 -31zM1878 94q131 0 131 215q0 242 -131 242t-131 -242q0 -215 131 -215zM338 -49l815 1532h150l-820 -1532h-145z" />
    <glyph glyph-name="guilsinglleft" unicode="&#x2039;" horiz-adv-x="530" 
d="M420 190l-318 252v230l318 252v-211l-195 -156l195 -156v-211z" />
    <glyph glyph-name="guilsinglright" unicode="&#x203a;" horiz-adv-x="530" 
d="M111 924l317 -252v-230l-317 -252v211l194 156l-194 156v211z" />
    <glyph glyph-name="fraction" unicode="&#x2044;" horiz-adv-x="342" 
d="M-338 -49l858 1532h160l-856 -1532h-162z" />
    <glyph glyph-name="Euro" unicode="&#x20ac;" 
d="M1118 1307l-92 -201q-51 88 -143 133q-76 29 -164 29q-144 0 -230 -74q-101 -85 -139 -274l594 4l-61 -133l-549 -5q-5 -42 0 -153h475l-61 -133h-392q7 -79 42.5 -147t90.5 -111q90 -79 230 -76q105 0 182 31q97 38 160 114v-231q-65 -50 -133 -72q-40 -12 -111 -24
q-73 -13 -112 -13q-90 0 -179.5 25.5t-154.5 71.5q-97 65 -163 181t-87 251h-152l62 133h71q-10 81 -2 153h-131l62 134h86q26 146 95 263t167 185q134 94 321 94q162 0 275 -49q79 -39 143 -106z" />
    <glyph glyph-name="afii61289" unicode="&#x2113;" horiz-adv-x="1021" 
d="M889 338l90 -86q-71 -138 -175 -205t-229 -67q-87 0 -154 28.5t-108 79.5t-64 114t-28 138v25q-15 -12 -53 -43.5t-59 -47.5l-56 115q142 118 166 141v541q0 133 28 234t76.5 159t107.5 86.5t128 28.5q132 0 201 -97.5t69 -252.5q0 -179 -106 -358.5t-305 -374.5v-78
q1 -135 58 -204t145 -69q82 0 152 56.5t116 136.5zM418 1077v-387q276 314 276 543q0 194 -129 194q-60 0 -103.5 -83t-43.5 -267z" />
    <glyph glyph-name="trademark" unicode="&#x2122;" horiz-adv-x="2027" 
d="M801 1462v-133h-258v-711h-164v711h-258v133h680zM1210 1462l232 -598l229 598h236v-844h-154v660h-4l-252 -660h-115l-252 660h-4v-660h-153v844h237z" />
    <glyph glyph-name="Omega" unicode="&#x2126;" horiz-adv-x="1458" 
d="M379 168v6q-114 105 -188 261.5t-74 348.5q0 142 46.5 266.5t127 214t195.5 141.5t247 52q112 0 209.5 -37t169 -101t123 -148t77 -180t25.5 -195q0 -198 -77 -360t-189 -263v-6h295v-168h-514v125q118 77 197 238.5t79 390.5q0 80 -16 156t-48.5 144.5t-78.5 120
t-111 81.5t-141 30q-121 0 -214.5 -71.5t-143 -194.5t-49.5 -275q0 -215 81 -382t197 -238v-125h-516v168h291z" />
    <glyph glyph-name="estimated" unicode="&#x212e;" horiz-adv-x="1798" 
d="M1726 696h-1341q-10 0 -10 -8v-407q0 -26 16 -45q101 -104 232 -163t276 -59q157 0 296 66t239 182h118q-112 -133 -285.5 -211t-369.5 -78q-168 0 -321.5 59t-264 158.5t-176 237t-65.5 289.5t65.5 290t176 237.5t264 158.5t321.5 59q169 0 322.5 -59t264.5 -158.5
t176.5 -237.5t65.5 -290v-21zM1421 750v407q0 29 -20 49q-100 99 -229.5 155t-272.5 56q-144 0 -274.5 -58t-231.5 -161q-18 -18 -18 -49v-399q0 -4 3 -9.5t7 -5.5h1028q8 0 8 15z" />
    <glyph glyph-name="partialdiff" unicode="&#x2202;" horiz-adv-x="1146" 
d="M209 1343l-62 154q145 117 357 117q86 0 165 -30.5t147.5 -94t119 -154t79.5 -219.5t29 -282q0 -251 -63 -442.5t-189 -301.5t-300 -110q-100 0 -181 43t-129.5 113t-74 153.5t-25.5 171.5q0 120 35.5 221t95 168.5t139.5 105t168 37.5q63 0 119.5 -19.5t96 -50t64.5 -58
t40 -52.5h2q2 20 2 80q0 234 -104.5 391.5t-260.5 157.5q-149 0 -270 -99zM510 154h2q63 0 118 40.5t93 108.5t62.5 152t33.5 174q-23 71 -93.5 134.5t-166.5 63.5q-115 0 -193.5 -109t-78.5 -261q0 -131 61.5 -217t161.5 -86z" />
    <glyph glyph-name="Delta" unicode="&#x2206;" horiz-adv-x="1331" 
d="M59 0v129l490 1341h244l479 -1339v-131h-1213zM270 168h781l-260 696q-16 52 -64 189.5t-61 185.5h-7q-10 -41 -55 -169.5t-59 -174.5z" />
    <glyph glyph-name="product" unicode="&#x220f;" horiz-adv-x="1452" 
d="M1399 1249h-217v-1448h-203v1448h-508v-1448h-203v1448h-217v187h1348v-187z" />
    <glyph glyph-name="summation" unicode="&#x2211;" horiz-adv-x="1136" 
d="M1094 -199h-1047v136l522 681l-501 674v144h993v-176h-713v-7l455 -602l-498 -651v-4h789v-195z" />
    <glyph glyph-name="minus" unicode="&#x2212;" horiz-adv-x="1228" 
d="M1130 414h-1032v209h1032v-209z" />
    <glyph glyph-name="uni2215" unicode="&#x2215;" horiz-adv-x="342" 
d="M-338 -49l858 1532h160l-856 -1532h-162z" />
    <glyph glyph-name="uni2219" unicode="&#x2219;" horiz-adv-x="569" 
d="M131 618q0 60 47 106t107 46q61 0 107 -46t46 -106q0 -62 -45.5 -108.5t-107.5 -46.5q-63 0 -108.5 46.5t-45.5 108.5z" />
    <glyph glyph-name="radical" unicode="&#x221a;" horiz-adv-x="1191" 
d="M1198 1716l-455 -2013h-172l-315 928l-152 -60l-36 119l313 125l235 -709q5 -21 14 -56t15 -61.5t10 -45.5h2q4 20 14.5 79t16.5 91l365 1603h145z" />
    <glyph glyph-name="infinity" unicode="&#x221e;" horiz-adv-x="1593" 
d="M1491 596v-2q0 -152 -95.5 -246t-226.5 -94q-93 0 -179.5 55.5t-190.5 182.5q-46 -55 -82.5 -92t-85 -73.5t-102 -54.5t-113.5 -18q-129 0 -222.5 95t-93.5 237q0 147 94.5 242.5t237.5 95.5q105 0 194 -62.5t179 -175.5q90 102 133 139q115 99 246 99q135 -2 221 -92.5
t86 -235.5zM432 373h2q20 0 39.5 3.5t39 13t35 16.5t35.5 24t31.5 26t32.5 31t28.5 30t30 33t27.5 30q-85 110 -127 148q-87 79 -184 79q-91 0 -144 -63.5t-53 -159.5q0 -89 58 -150t149 -61zM1171 807h-4q-37 0 -73 -13.5t-71 -42.5t-56.5 -49.5t-56.5 -60t-44 -49.5
q106 -123 170.5 -171t139.5 -48q87 0 139.5 65.5t52.5 147.5q0 99 -55 160t-142 61z" />
    <glyph glyph-name="integral" unicode="&#x222b;" horiz-adv-x="772" 
d="M731 1739l-26 -142q-34 19 -74 19q-65 0 -103 -49q-35 -42 -49 -128t-14 -231q0 -161 14.5 -496t14.5 -513q0 -279 -80 -414q-36 -64 -99 -95.5t-135 -31.5q-89 0 -145 33l28 147q55 -22 93 -22q59 0 92 45q61 81 61 336q0 180 -14 522.5t-14 509.5q0 175 26.5 279.5
t89.5 170.5q80 86 215 86q69 0 119 -26z" />
    <glyph glyph-name="approxequal" unicode="&#x2248;" 
d="M973 907l76 -69q-103 -205 -269 -205q-58 0 -105.5 18.5t-129.5 65.5q-57 35 -98 52t-87 17q-33 0 -61.5 -11.5t-53 -35.5t-41 -45.5t-40.5 -56.5l-78 68q45 92 121.5 147t167.5 55q28 0 54 -4.5t52.5 -15t41 -17.5t42 -22.5t33.5 -18.5q5 -3 20.5 -12.5t20 -12l18 -10
t18.5 -10t16.5 -8t17.5 -7.5l16.5 -5.5t18.5 -4.5t18 -2t20 -1q58 0 101 37t90 114zM973 541l76 -70q-46 -92 -114.5 -147.5t-156.5 -55.5q-56 0 -103 18.5t-130 65.5q-58 36 -98 53t-85 17q-34 0 -63 -11.5t-54 -36.5t-41 -46t-40 -58l-78 70q45 93 121.5 148t167.5 55
q28 0 54.5 -4.5t53 -15.5t40 -17t41.5 -22.5t32 -18.5q13 -7 38 -21.5t38 -21t33 -15.5t38.5 -12.5t38.5 -3.5q59 0 101.5 36.5t89.5 113.5z" />
    <glyph glyph-name="notequal" unicode="&#x2260;" 
d="M821 1044l-86 -192h301v-125h-348l-129 -289h477v-123h-526l-107 -237l-98 41l88 196h-293v123h342l129 289h-471v125h518l105 233z" />
    <glyph glyph-name="lessequal" unicode="&#x2264;" 
d="M1030 201l-917 461v133l917 458v-147l-790 -375v-4l790 -379v-147zM1038 -6h-936v127h936v-127z" />
    <glyph glyph-name="greaterequal" unicode="&#x2265;" 
d="M115 1253l919 -458v-133l-919 -461v147l790 377v6l-790 375v147zM1034 -6h-930v127h930v-127z" />
    <glyph glyph-name="lozenge" unicode="&#x25ca;" horiz-adv-x="1191" 
d="M1083 717l-409 -813h-166l-402 813l410 815h166zM899 713l-262 532q-30 78 -39 117h-6q-11 -50 -39 -117l-262 -524l264 -539q29 -76 35 -110h8q24 81 37 108z" />
    <glyph glyph-name="fi" unicode="&#xfb01;" 
d="M774 0v1059h234v-1059h-234zM18 885v174h175v88q0 78 16.5 136t42 91.5t65.5 54t79 27t89 6.5q112 0 164 -14v-182q-46 12 -108 12q-115 0 -115 -111v-108h199v-174h-199v-885h-233v885h-175zM774 1241v221h234v-221h-234z" />
    <glyph glyph-name="fl" unicode="&#xfb02;" 
d="M18 885v174h175v88q0 78 16.5 136t42 91.5t65.5 54t79 27t89 6.5q112 0 164 -14v-182q-46 12 -108 12q-115 0 -115 -111v-108h199v-174h-199v-885h-233v885h-175zM774 0v1462h234v-1462h-234z" />
    <glyph glyph-name="a.superior" horiz-adv-x="778" 
d="M500 1006v90q-33 -16 -172 -39q-55 -9 -86 -29.5t-31 -62.5q0 -39 30.5 -53.5t84.5 -14.5q174 0 174 109zM678 1272v-309q0 -25 6.5 -35.5t28.5 -9.5q18 0 32 2v-140q-46 -16 -96 -16q-57 0 -87.5 22.5t-39.5 77.5q-28 -42 -101 -71t-138 -29q-103 0 -176.5 50.5
t-73.5 139.5q0 33 9.5 60t21.5 45.5t37 34.5t43.5 24.5t53.5 17.5t53.5 12.5t57.5 10.5q119 20 141 28q50 17 50 50q0 31 -11 51t-32 28t-37.5 10.5t-42.5 2.5q-66 0 -103 -19t-41 -67h-174q6 61 36 105.5t77 68.5t100 34.5t115 10.5q75 0 138.5 -18.5t108 -63t44.5 -108.5z
" />
    <glyph glyph-name="o.superior" horiz-adv-x="778" 
d="M582 1112q0 85 -49.5 151t-137.5 66q-89 0 -137.5 -66t-48.5 -151t48.5 -150t137.5 -65q90 0 136 63.5t51 151.5zM760 1112q0 -160 -95 -254t-270 -94t-269.5 94t-94.5 254t94.5 255t269.5 95t270 -95t95 -255z" />
    <glyph glyph-name="one.superior" horiz-adv-x="737" 
d="M74 1182v118q109 0 186.5 35.5t95.5 108.5h144v-885h-178v623h-248z" />
    <glyph glyph-name="two.superior" horiz-adv-x="737" 
d="M688 702v-143h-645q1 119 53.5 203.5t151.5 146.5q21 14 74 46.5t79 51.5t61 50t51 64t17 71q0 63 -42.5 95t-106.5 32q-53 0 -87 -29t-47.5 -69t-15.5 -93h-178q0 155 90.5 244.5t245.5 89.5q139 0 229.5 -66.5t90.5 -199.5q0 -48 -17 -91.5t-49 -79t-65 -62.5t-78 -56
q-22 -15 -62.5 -39.5t-64 -40t-51.5 -37t-45 -43.5t-25 -45h436z" />
    <glyph glyph-name="three.superior" horiz-adv-x="737" 
d="M299 973v119q86 -3 146.5 27.5t60.5 97.5q0 51 -43 76.5t-98 25.5q-68 0 -110.5 -44.5t-39.5 -111.5h-164q6 141 90.5 220t225.5 79q60 0 112 -13t96 -40t69.5 -74t25.5 -110q0 -66 -33 -114t-98 -71v-4q78 -13 123 -71.5t45 -143.5q0 -131 -96.5 -205.5t-241.5 -74.5
q-164 0 -248.5 82.5t-87.5 234.5h164q-3 -75 43 -124.5t129 -49.5q74 0 124 39.5t50 105.5q0 47 -20 78t-57.5 45t-76.5 18.5t-90 2.5z" />
    </font>
</defs>
</svg>
